BitTorrentTracker PerecTracker.org
BitTorrentTracker PerecTracker.org
    
Регистрация  ·  Вход
 
 · 
Забыли пароль?

  • Анархисты / Les anarchistes (Эли Важеман / Elie Wajeman) [2015, Франция, Драма, WEB-DLRip] MVO

    Ответить на тему
     
    Автор Сообщение

    Light

    Создавать темы 25-Июл-2016 10:18

           

    [Цитировать]

    Анархисты / Les anarchistes
    Страна: Франция
    Жанр: Драма
    Год выпуска: 2015
    Продолжительность: 01:36:27
    Перевод: Профессиональный (многоголосый закадровый)
    Cубтитры: нет
    Режиссер: Эли Важеман / Elie Wajeman
    В ролях: Тахар Рахим, Адель Экзаркопулос, Сванн Арло, Гийом Гуи, Карим Леклу, Сара Лепикар, Седрик Кан, Эмили де Прессак, Аурелия Пурье, Одри Бонне
    Описание: Париж, 1899 год. Выросший в нищете сирота, а ныне командир отделения жандармерии Жан Альбертини должен проникнуть в группу анархистов. Для него это реальная возможность подняться по карьерной лестнице. Но чем дальше, тем больше у него возникает сомнений. По мере того как Жан составляет полицеские рапорты на преступную группировку для своего начальника Гаспара, он сам начинает все больше симпатизировать им.
    Релиз от Megapeer
    Сэмпл: http://multi-up.com/1111283
    Качество видео: WEB-DLRip
    Формат видео: AVI
    Видео: 720x320 (2.25:1), 25 fps, XviD build 73 ~1950 kbps avg, 0.37 bit/pixel
    Аудио: AC-3, 48,0 КГц, 2 канала, 192 Кбит/сек

    MediaInfo

    ОбщееПолное имя : D:\загрузки\Les.anarchistes.2015.XviD.aviФормат : AVIФормат/Информация : Audio Video InterleaveРазмер файла : 1,45 ГбайтПродолжительность : 1 ч. 36 м.Общий поток : 2150 Кбит/сек
    ВидеоИдентификатор : 0Формат : MPEG-4 VisualПрофиль формата : Advanced Simple@L5Параметр BVOP формата : 1Параметр QPel формата : НетПараметр GMC формата : Без точки переходаПараметр матрицы формата : ВыборочнаяИдентификатор кодека : XVIDИдентификатор кодека/Подсказка : XviDПродолжительность : 1 ч. 36 м.Битрейт : 1950 Кбит/секШирина : 720 пикселейВысота : 320 пикселейСоотношение сторон : 2,25:1Частота кадров : 25,000 кадров/секЦветовое пространство : YUVСубдискретизация насыщенности : 4:2:0Битовая глубина : 8 битТип развёртки : ПрогрессивнаяМетод сжатия : С потерямиБит/(Пиксели*Кадры) : 0.339Размер потока : 1,31 Гбайт (91%)Библиотека кодирования : XviD 73
    АудиоИдентификатор : 1Формат : AC-3Формат/Информация : Audio Coding 3Расширение режима : CM (complete main)Параметр Endianness формата : BigИдентификатор кодека : 2000Продолжительность : 1 ч. 36 м.Вид битрейта : ПостоянныйБитрейт : 192 Кбит/секКаналы : 2 каналаРасположение каналов : Front: L RЧастота : 48,0 КГцЧастота кадров : 31,250 кадров/сек (1536 spf)Метод сжатия : С потерямиРазмер потока : 132 Мбайт (9%)Выравнивание : Соединение по промежуткамПродолжительность промежутка : 64 мс. (1,60 видеокадра)Время предзагрузки промежутка : 192 мс.Заголовок : Official

    Скриншоты

    Скачать .torrent

    Скачать торрент-файл бесплатно и на максимальной скорости!

    Как скачивать? · Что такое торрент? · Рейтинг и ограничения

    !ВНИМАНИЕ!
    Сайт не распространяет и не хранит электронные версии произведений, а занимается лишь лишь предоставлением доступа к создаваемому пользователями каталогу ссылок на торрент-файлы, которые содержат только списки хеш-сумм, убедительная просьба с жалобами обращаться напрямую к пользователю. Файлы для обмена на трекере предоставлены пользователями сайта, и администрация не несёт ответственности за их содержание. Просьба не заливать файлы, защищенные авторскими правами, а также файлы нелегального содержания!


    _________________
    [Профиль] [ЛС]
    Показать сообщения:    
    Ответить на тему

    Текущее время: Сегодня, в 22:08

    Часовой пояс: GMT + 2



    Вы не можете начинать темы
    Вы не можете отвечать на сообщения
    Вы не можете редактировать свои сообщения
    Вы не можете удалять свои сообщения
    Вы не можете голосовать в опросах
    Вы не можете прикреплять файлы к сообщениям
    Вы не можете скачивать файлы