BitTorrentTracker PerecTracker.org
BitTorrentTracker PerecTracker.org
    
Регистрация  ·  Вход
 
 · 
Забыли пароль?

  • Братья из Гримсби / Grimsby (Луи Летерье / Louis Leterrier) [2016, Великобритания, Австралия, США, Боевик, комедия, BDRip, HD (720p)] DUB + Original + sub (rus, eng)

    Ответить на тему
     
    Автор Сообщение

    rechyn

    Создавать темы 25-Июл-2016 06:06

           

    [Цитировать]

    Братья из Гримсби / Grimsby
    «One secret agent. One complete idiot»
    6.433 / 10 6.30 / 10
    -Год выпуска: 2016
    Страна: Великобритания, Австралия, США
    Жанр: Боевик, комедия
    Продолжительность: 01:23:12
    Перевод: Дублированный (Лицензия)
    Оригинальная аудиодорожка: Есть
    Cубтитры: Русские форсированные, Русские, Английские
    Режиссёр: Луи Летерье
    Сценарий: Саша Барон Коэн, Фил Джонстон, Питер Бейнхэм
    Продюсер: Саша Барон Коэн, Питер Бейнхэм, Найра Парк
    Оператор: Оливер Вуд
    Композитор: Дэвид Бакли, Эрран Барон Коэн
    Художник: Кейв Куинн, Кирк Домэн, Джонатан Хели-Хатчинсон
    Монтаж: Джонатан Амос, Ивэн Хенке, Дебра Нил Фишер
    В ролях: Саша Барон Коэн, Марк Стронг, Ребел Уилсон, Пенелопа Крус, Айла Фишер, Габури Сидибе, Аннабелль Уоллис, Иэн МакШейн, Дэвид Хэрвуд, Рикки Томлинсон
    Бюджет: $35 000 000
    Сборы в США: $6 874 837
    Сборы в мире: + $18 308 092 = $25 182 929
    Сборы в России: $2 324 397
    Мировая премьера: 24 февраля 2016
    Премьера (РФ): 10 марта 2016, «WDSSPR»
    Описание: Сверхсекретная операция, которую выполняет образцовый спецагент, с треском провалена из-за некстати свалившегося на его голову неадекватного брата — оголтелого футбольного фаната и полного беспредельщика. Теперь герою предстоит спасти свою жизнь и вдобавок планету от нависшей над ней угрозы — практически невыполнимая задача в тандеме с вновь приобретенным родственником.-Качество исходника: Blu-Ray (HDClub)
    Качество: BDRip
    Тип: HD (720p)
    Контейнер: M4V
    Видео: H.264, 1280x544, 2.35:1, 3 500 Kbps, 23.976 fps
    Аудио 1: Русский/Дублированный (Лицензия), AAC / 2.0 / 157 Kbps / 48.0 KHz
    Аудио 2: Английский/Оригинальная дорожка , AAC / 2.0 / 157 Kbps / 48.0 KHz
    Аудио 3: Русский/Дублированный (Лицензия), AC-3 / 5.1 / 640 Kbps / 48.0 KHz
    Аудио 4: Английский/Оригинальная дорожка , AC-3 / 5.1 / 640 Kbps / 48.0 KHz
    Субтитры 1: Русские форсированные
    Субтитры 2: Русские полные
    Субтитры 3: Английские полные
    -

    iTunes Meta Tags

    Sort Name: Brothers Grimsby
    XID: Apple:vendor_id:2016-817481
    contentID: 1079989968
    Screenwriters: Саша Барон Коэн, Фил Джонстон, Питер Бейнхэм
    Producers: Саша Барон Коэн, Найра Парк, Питер Бейнхэм
    Director: Луи Летерье
    Cast: Саша Барон Коэн, Марк Стронг, Ребел Уилсон, Пенелопа Крус, Айла Фишер, Габури Сидибе, Аннабелль Уоллис, Иэн МакШейн, Дэвид Хэрвуд, Рикки Томлинсон, Василий Дахненко, Александр Коврижных, Алена Фалалеева, Людмила Шувалова, Ирина Киреева
    Studio: Columbia Pictures
    Rating: 5
    Long Description: Сверхсекретная операция, которую выполняет образцовый спецагент, с треском провалена из-за некстати свалившегося на его голову неадекватного брата - оголтелого футбольного фаната и полного беспредельщика. Теперь герою предстоит спасти свою жизнь и вдобавок планету от нависшей над ней угрозы - практически невыполнимая задача в тандеме с вновь приобретенным родственником.
    Description: Сверхсекретная операция, которую выполняет образцовый спецагент, с треском провалена из-за некстати свалившегося на его голову неадекватного брата - оголтелого футбольного фаната и полного беспредельщика. Теперь герою предстоит спасти свою жизнь и вдобавок планету от нависшей над ней угрозы - практически невыполнимая задача в тандеме с вновь приобретенным родственником.
    Release Date: 2016-02-24T08:00:00Z
    Genre: Comedy
    Artist: Louis Leterrier
    Name: The Brothers Grimsby

    MediaInfo

    General
    Complete name : /Users/imac/HandBrake/Grimsby (720p HD).m4v
    Format : MPEG-4
    Codec ID : M4V
    File size : 2.96 GiB
    Duration : 1h 23mn
    Overall bit rate mode : Variable
    Overall bit rate : 5 094 Kbps
    Movie name : The Brothers Grimsby
    Performer : Louis Leterrier
    Director : Луи Летерье
    Actor : Саша Барон Коэн / Марк Стронг / Ребел Уилсон / Пенелопа Крус / Айла Фишер / Габури Сидибе / Аннабелль Уоллис / Иэн МакШейн / Дэвид Хэрвуд / Рикки Томлинсон / Василий Дахненко / Александр Коврижных / Алена Фалалеева / Людмила Шувалова / Ирина Киреева
    Screenplay by : Саша Барон Коэн / Фил Джонстон / Питер Бейнхэм
    Producer : Саша Барон Коэн / Найра Парк / Питер Бейнхэм
    Production studio : Columbia Pictures
    Genre : Comedy
    ContentType : Short Film
    Description : Сверхсекретная операция, которую выполняет образцовый спецагент, с треском провалена из-за некстати свалившегося на его голову неадекватного брата - оголтелого футбольного фаната и полного беспредельщика. Теперь герою предстоит спасти свою жизнь и вдобавок планету от нависшей над ней угрозы - практически невыполнимая задача в тандеме с вновь приобретенным родственником.
    Recorded date : UTC 2016-02-24 08:00:00
    Encoded date : UTC 2016-07-24 22:40:50
    Tagged date : UTC 2016-07-24 22:42:08
    Cover : Yes
    Rating : None
    Title/Sort : Brothers Grimsby
    LongDescription : Сверхсекретная операция, которую выполняет образцовый спецагент, с треском провалена из-за некстати свалившегося на его голову неадекватного брата - оголтелого футбольного фаната и полного беспредельщика. Теперь герою предстоит спасти свою жизнь и вдобавок планету от нависшей над ней угрозы - практически невыполнимая задача в тандеме с вновь приобретенным родственником.
    HDVideo : Yes
    AppleStoreCatalogID : 1079989968
    Vendor : Apple:vendor_id:2016-817481
    ContentRating : mpaa|R|400|
    Video #1
    ID : 1
    Format : AVC
    Format/Info : Advanced Video Codec
    Format profile : High@L3.1
    Format settings, CABAC : No
    Format settings, ReFrames : 3 frames
    Codec ID : avc1
    Codec ID/Info : Advanced Video Coding
    Duration : 1h 23mn
    Source duration : 1h 23mn
    Bit rate : 3 500 Kbps
    Width : 1 280 pixels
    Height : 544 pixels
    Display aspect ratio : 2.35:1
    Frame rate mode : Variable
    Frame rate : 23.976 fps
    Minimum frame rate : 23.810 fps
    Maximum frame rate : 24.246 fps
    Color space : YUV
    Chroma subsampling : 4:2:0
    Bit depth : 8 bits
    Scan type : Progressive
    Bits/(Pixel*Frame) : 0.210
    Stream size : 2.03 GiB (69%)
    Source stream size : 2.03 GiB (69%)
    Title : Main Program
    Writing library : x264 core 142 r2479 dd79a61
    Encoding settings : cabac=0 / ref=3 / deblock=1:-3:-3 / analyse=0x3:0x113 / me=umh / subme=9 / psy=1 / psy_rd=1.00:0.15 / mixed_ref=1 / me_range=32 / chroma_me=1 / trellis=0 / 8x8dct=1 / cqm=0 / deadzone=21,11 / fast_pskip=0 / chroma_qp_offset=-2 / threads=36 / lookahead_threads=3 / sliced_threads=0 / nr=0 / decimate=0 / interlaced=0 / bluray_compat=0 / constrained_intra=0 / bframes=3 / b_pyramid=0 / b_adapt=2 / b_bias=0 / direct=1 / weightb=0 / open_gop=0 / weightp=0 / keyint=240 / keyint_min=24 / scenecut=40 / intra_refresh=0 / rc_lookahead=40 / rc=2pass / mbtree=1 / bitrate=3500 / ratetol=1.0 / qcomp=0.65 / qpmin=0 / qpmax=69 / qpstep=4 / cplxblur=20.0 / qblur=0.5 / vbv_maxrate=9500 / vbv_bufsize=9500 / nal_hrd=none / filler=0 / ip_ratio=1.40 / aq=1:1.10
    Language : English
    Encoded date : UTC 2016-07-24 22:40:50
    Tagged date : UTC 2016-07-24 22:40:54
    Color range : Limited
    Color primaries : BT.709
    Transfer characteristics : BT.709
    Matrix coefficients : BT.709
    Video #2
    ID : 10
    Format : JPEG
    Codec ID : jpeg
    Duration : 1h 23mn
    Bit rate mode : Variable
    Bit rate : 1 238 bps
    Width : 640 pixels
    Height : 272 pixels
    Display aspect ratio : 2.35:1
    Frame rate mode : Variable
    Frame rate : 0.003 fps
    Minimum frame rate : 0.002 fps
    Maximum frame rate : 0.004 fps
    Color space : YUV
    Chroma subsampling : 4:2:0
    Bit depth : 8 bits
    Compression mode : Lossy
    Bits/(Pixel*Frame) : 2.371
    Stream size : 806 KiB (0%)
    Title : Chapter Images
    Language : English
    Encoded date : UTC 2016-07-24 22:41:15
    Tagged date : UTC 2016-07-24 22:41:15
    Audio #1
    ID : 2
    Format : AAC
    Format/Info : Advanced Audio Codec
    Format profile : LC
    Codec ID : 40
    Duration : 1h 23mn
    Bit rate mode : Variable
    Bit rate : 157 Kbps
    Maximum bit rate : 284 Kbps
    Channel(s) : 2 channels
    Channel positions : Front: L R
    Sampling rate : 48.0 KHz
    Compression mode : Lossy
    Stream size : 93.5 MiB (3%)
    Title : Russian Stereo
    Language : Russian
    Encoded date : UTC 2016-07-24 22:40:50
    Tagged date : UTC 2016-07-24 22:41:11
    Audio #2
    ID : 3
    Format : AAC
    Format/Info : Advanced Audio Codec
    Format profile : LC
    Codec ID : 40
    Duration : 1h 23mn
    Bit rate mode : Variable
    Bit rate : 157 Kbps
    Maximum bit rate : 245 Kbps
    Channel(s) : 2 channels
    Channel positions : Front: L R
    Sampling rate : 48.0 KHz
    Compression mode : Lossy
    Stream size : 93.6 MiB (3%)
    Title : English Stereo
    Language : English
    Encoded date : UTC 2016-07-24 22:40:50
    Tagged date : UTC 2016-07-24 22:41:11
    Audio #3
    ID : 4
    Format : AC-3
    Format/Info : Audio Coding 3
    Mode extension : CM (complete main)
    Format settings, Endianness : Big
    Codec ID : ac-3
    Duration : 1h 23mn
    Bit rate mode : Constant
    Bit rate : 640 Kbps
    Channel(s) : 6 channels
    Channel positions : Front: L C R, Side: L R, LFE
    Sampling rate : 48.0 KHz
    Bit depth : 16 bits
    Compression mode : Lossy
    Stream size : 380 MiB (13%)
    Title : Russian DD 5.1
    Language : Russian
    Encoded date : UTC 2016-07-24 22:40:50
    Tagged date : UTC 2016-07-24 22:41:11
    Audio #4
    ID : 5
    Format : AC-3
    Format/Info : Audio Coding 3
    Mode extension : CM (complete main)
    Format settings, Endianness : Big
    Codec ID : ac-3
    Duration : 1h 23mn
    Bit rate mode : Constant
    Bit rate : 640 Kbps
    Channel(s) : 6 channels
    Channel positions : Front: L C R, Side: L R, LFE
    Sampling rate : 48.0 KHz
    Bit depth : 16 bits
    Compression mode : Lossy
    Stream size : 381 MiB (13%)
    Title : English DD 5.1
    Language : English
    Encoded date : UTC 2016-07-24 22:40:50
    Tagged date : UTC 2016-07-24 22:41:11
    Text #1
    ID : 6
    Format : Timed Text
    Muxing mode : sbtl
    Codec ID : tx3g
    Duration : 1h 16mn
    Bit rate mode : Variable
    Bit rate : 4 bps
    Stream size : 1.97 KiB (0%)
    Title : Russian forced
    Language : Russian
    Encoded date : UTC 2016-07-24 22:40:50
    Tagged date : UTC 2016-07-24 22:41:10
    Text #2
    ID : 7
    Format : Timed Text
    Muxing mode : sbtl
    Codec ID : tx3g
    Duration : 1h 22mn
    Bit rate mode : Variable
    Bit rate : 109 bps
    Stream size : 66.0 KiB (0%)
    Title : Russian full
    Language : Russian
    Encoded date : UTC 2016-07-24 22:40:50
    Tagged date : UTC 2016-07-24 22:41:11
    Text #3
    ID : 8
    Format : Timed Text
    Muxing mode : sbtl
    Codec ID : tx3g
    Duration : 1h 22mn
    Bit rate mode : Variable
    Bit rate : 63 bps
    Stream size : 38.3 KiB (0%)
    Title : English full
    Language : English
    Encoded date : UTC 2016-07-24 22:40:50
    Tagged date : UTC 2016-07-24 22:41:11
    Menu #1
    00:00:00.000 : 00:00:00.000
    00:06:54.414 : 00:06:54.331
    00:11:01.077 : 00:11:00.994
    00:16:25.818 : 00:16:25.735
    00:21:37.713 : 00:21:37.630
    00:26:43.811 : 00:26:43.727
    00:31:46.947 : 00:31:46.863
    00:36:48.790 : 00:36:48.706
    00:41:57.140 : 00:41:57.056
    00:46:55.062 : 00:46:54.979
    00:52:19.678 : 00:52:19.595
    00:57:28.570 : 00:57:28.487
    01:01:27.934 : 01:01:27.851
    01:06:16.222 : 01:06:16.139
    01:11:52.183 : 01:11:52.099
    01:16:25.956 : 01:16:25.873
    Menu #2
    ID : 9
    Codec ID : text
    Duration : 1h 23mn
    Language : English
    Encoded date : UTC 2016-07-24 22:41:11
    Tagged date : UTC 2016-07-24 22:41:11
    Bit rate mode : CBR
    00:00:00.000 : 00:00:00.000
    00:06:54.414 : 00:06:54.331
    00:11:01.077 : 00:11:00.994
    00:16:25.818 : 00:16:25.735
    00:21:37.713 : 00:21:37.630
    00:26:43.811 : 00:26:43.727
    00:31:46.947 : 00:31:46.863
    00:36:48.790 : 00:36:48.706
    00:41:57.140 : 00:41:57.056
    00:46:55.062 : 00:46:54.979
    00:52:19.678 : 00:52:19.595
    00:57:28.570 : 00:57:28.487
    01:01:27.934 : 01:01:27.851
    01:06:16.222 : 01:06:16.139
    01:11:52.183 : 01:11:52.099
    01:16:25.956 : 01:16:25.873

    x264 лог

    x264 [info]: frame I:1937  Avg QP:16.36  size: 93419
    x264 [info]: frame P:48633 Avg QP:18.72  size: 29420
    x264 [info]: frame B:69118 Avg QP:19.94  size:  8190
    x264 [info]: consecutive B-frames:  8.6% 37.4% 17.2% 36.8%
    x264 [info]: mb I  I16..4:  8.0% 54.0% 37.9%
    x264 [info]: mb P  I16..4:  2.9%  8.3%  4.6%  P16..4: 45.3% 23.1%  9.8%  0.0%  0.0%    skip: 6.1%
    x264 [info]: mb B  I16..4:  0.2%  1.0%  0.7%  B16..8: 44.0% 10.2%  1.6%  direct: 3.3%  skip:39.0%  L0:38.4% L1:53.3% BI: 8.3%
    x264 [info]: 8x8 transform intra:52.9% inter:48.4%
    x264 [info]: coded y,uvDC,uvAC intra: 80.0% 75.8% 49.7% inter: 24.5% 18.0% 8.8%
    x264 [info]: i16 v,h,dc,p: 33% 24%  5% 38%
    x264 [info]: i8 v,h,dc,ddl,ddr,vr,hd,vl,hu:  8%  9%  5% 12% 15% 14% 15% 11% 12%
    x264 [info]: i4 v,h,dc,ddl,ddr,vr,hd,vl,hu:  9% 13%  3% 11% 16% 15% 14% 10%  9%
    x264 [info]: i8c dc,h,v,p: 50% 19% 19% 12%
    x264 [info]: ref P L0: 76.5% 14.2%  9.4%
    x264 [info]: ref B L0: 84.6% 15.4%
    x264 [info]: kb/s:3490.14

    Скриншоты

    -

    Релиз подготовлен для просмотра на Apple TV, iPad, iPhone, iPod Touch.
    Для просмотра данного релиза на компьютере с ОС Windows рекомендуется использовать VLC media player
    Скачать .torrent

    Скачать торрент-файл бесплатно и на максимальной скорости!

    Как скачивать? · Что такое торрент? · Рейтинг и ограничения

    !ВНИМАНИЕ!
    Сайт не распространяет и не хранит электронные версии произведений, а занимается лишь лишь предоставлением доступа к создаваемому пользователями каталогу ссылок на торрент-файлы, которые содержат только списки хеш-сумм, убедительная просьба с жалобами обращаться напрямую к пользователю. Файлы для обмена на трекере предоставлены пользователями сайта, и администрация не несёт ответственности за их содержание. Просьба не заливать файлы, защищенные авторскими правами, а также файлы нелегального содержания!


    _________________
    [Профиль] [ЛС]
    Показать сообщения:    
    Ответить на тему

    Текущее время: Сегодня, в 18:09

    Часовой пояс: GMT + 2



    Вы не можете начинать темы
    Вы не можете отвечать на сообщения
    Вы не можете редактировать свои сообщения
    Вы не можете удалять свои сообщения
    Вы не можете голосовать в опросах
    Вы не можете прикреплять файлы к сообщениям
    Вы не можете скачивать файлы