BitTorrentTracker PerecTracker.org
BitTorrentTracker PerecTracker.org
    
Регистрация  ·  Вход
 
 · 
Забыли пароль?

  • Взгляд в прошлое / Флэшбэк / Flashback (Франко Амурри / Franco Amurri) [1990, США, боевик, комедия, криминал, WEB-DL 720p] DVO (Paramount) + 2x AVO (Михалев, Дохалов) + Sub Eng + Original Eng

    Ответить на тему
     
    Автор Сообщение

    Light

    Создавать темы 24-Июл-2016 21:57

           

    [Цитировать]

    Взгляд в прошлое / Флэшбэк / Flashback
    Страна: США
    Студия: Paramount Pictures
    Жанр: боевик, комедия, криминал
    Год выпуска: 1990
    Продолжительность: 01:47:38
    Перевод: Профессиональный (двухголосый закадровый) Paramount Channel
    Перевод 2: Авторский (одноголосый закадровый) А. Михалев
    Перевод 3: Авторский (одноголосый закадровый) В. Дохалов
    Cубтитры: английские
    Оригинальная аудиодорожка: английский
    Режиссер: Франко Амурри / Franco Amurri
    В ролях: Деннис Хоппер, Кифер Сазерленд, Кэрол Кэйн, Клифф Де Янг, Пол Дули, Майкл МакКин, Ричард Мазур, Кэтлин Йорк, Том О'Брайен
    Описание: Хьюи Уокер, бунтарь-хиппи со стажем преследуется ФБР за пустячное преступление 20-летней давности. Его конвоир — агент ФБР Джон Батнер, которому дано задание перевезти в тюрьму длинноволосого ветерана. Но по дороге арестант Батнера сбегает.
    Пытаясь поймать беглеца, Джон вступает в конфликт с полицией, и вскоре сам пускается в бега со своим злополучным напарником.


    Sample
    Тип релиза: WEB-DL 720p
    Контейнер: MKV
    Видео: MPEG4 AVC Video, H264, 16:9, 1280x720, 23.976 fps, 3835 kbps
    Аудио: Russian (AC3, 2 ch, 192 kbps, 16 bits, 48.0 KHz) - DVO
    Аудио 2: Russian (AC3, 2 ch, 192 kbps, 16 bits, 48.0 KHz) - А. Михалев
    Аудио 3: Russian (AC3, 2 ch, 192 kbps, 16 bits, 48.0 KHz) - В. Дохалов
    Аудио 4: English (AC3, 6 ch, 384 kbps, 16 bits, 48.0 KHz) - оригинал
    Формат субтитров: softsub (SRT)

    MediaInfo

    General
    Unique ID : 176092014236340123868649766655501310050 (0x847A169C0AF04B22B593DFB159FC9862)
    Complete name : E:\Flashback 1990 WEB-DL 720p.mkv
    Format : Matroska
    Format version : Version 4 / Version 2
    File size : 3.68 GiB
    Duration : 1h 47mn
    Overall bit rate : 4 892 Kbps
    Encoded date : UTC 2016-07-19 08:30:34
    Writing application : mkvmerge v6.1.0 ('Old Devil') built on Mar 2 2013 14:32:37
    Writing library : libebml v1.3.0 + libmatroska v1.4.0
    Video
    ID : 1
    Format : AVC
    Format/Info : Advanced Video Codec
    Format profile : High@L3.1
    Format settings, CABAC : No
    Format settings, ReFrames : 2 frames
    Codec ID : V_MPEG4/ISO/AVC
    Duration : 1h 47mn
    Bit rate : 3 835 Kbps
    Width : 1 280 pixels
    Height : 720 pixels
    Display aspect ratio : 16:9
    Frame rate mode : Constant
    Frame rate : 23.976 fps
    Color space : YUV
    Chroma subsampling : 4:2:0
    Bit depth : 8 bits
    Scan type : Progressive
    Bits/(Pixel*Frame) : 0.174
    Stream size : 2.88 GiB (78%)
    Language : English
    Default : Yes
    Forced : No
    Color primaries : BT.709
    Transfer characteristics : BT.709
    Matrix coefficients : BT.709
    Audio #1
    ID : 2
    Format : AC-3
    Format/Info : Audio Coding 3
    Mode extension : CM (complete main)
    Format settings, Endianness : Big
    Codec ID : A_AC3
    Duration : 1h 47mn
    Bit rate mode : Constant
    Bit rate : 192 Kbps
    Channel count : 2 channels
    Channel positions : Front: L R
    Sampling rate : 48.0 KHz
    Bit depth : 16 bits
    Compression mode : Lossy
    Stream size : 148 MiB (4%)
    Title : Paramount Channel
    Language : Russian
    Default : Yes
    Forced : No
    Audio #2
    ID : 3
    Format : AC-3
    Format/Info : Audio Coding 3
    Mode extension : CM (complete main)
    Format settings, Endianness : Big
    Codec ID : A_AC3
    Duration : 1h 47mn
    Bit rate mode : Constant
    Bit rate : 192 Kbps
    Channel count : 2 channels
    Channel positions : Front: L R
    Sampling rate : 48.0 KHz
    Bit depth : 16 bits
    Compression mode : Lossy
    Stream size : 148 MiB (4%)
    Title : А. Михалев
    Language : Russian
    Default : No
    Forced : No
    Audio #3
    ID : 4
    Format : AC-3
    Format/Info : Audio Coding 3
    Mode extension : CM (complete main)
    Format settings, Endianness : Big
    Codec ID : A_AC3
    Duration : 1h 47mn
    Bit rate mode : Constant
    Bit rate : 192 Kbps
    Channel count : 2 channels
    Channel positions : Front: L R
    Sampling rate : 48.0 KHz
    Bit depth : 16 bits
    Compression mode : Lossy
    Stream size : 148 MiB (4%)
    Title : В.Дохалов
    Language : Russian
    Default : No
    Forced : No
    Audio #4
    ID : 5
    Format : AC-3
    Format/Info : Audio Coding 3
    Mode extension : CM (complete main)
    Format settings, Endianness : Big
    Codec ID : A_AC3
    Duration : 1h 47mn
    Bit rate mode : Constant
    Bit rate : 384 Kbps
    Channel count : 6 channels
    Channel positions : Front: L C R, Side: L R, LFE
    Sampling rate : 48.0 KHz
    Bit depth : 16 bits
    Compression mode : Lossy
    Stream size : 296 MiB (8%)
    Language : English
    Default : No
    Forced : No
    Text
    ID : 6
    Format : UTF-8
    Codec ID : S_TEXT/UTF8
    Codec ID/Info : UTF-8 Plain Text
    Language : English
    Default : No
    Forced : No
    Menu
    00:00:00.000 : en:THE ASSIGNMENT
    00:04:19.000 : en:PRISONER OF THE SYSTEM
    00:10:58.000 : en:CULTURE CLASH
    00:18:57.000 : en:TRIPPING
    00:26:28.000 : en:SWITCHEROO
    00:29:18.000 : en:THE GOOD OLD DAYS
    00:36:47.000 : en:CIVIL RIGHTS VIOLATIONS
    00:42:51.000 : en:THE EXCHANGE
    00:49:57.000 : en:SURVIVAL OF THE TRICKIEST
    01:00:10.000 : en:FREE
    01:04:47.000 : en:HIPPIE HEAVEN
    01:11:00.000 : en:SUMMER OF LOVE
    01:17:58.000 : en:FLOWER POWER
    01:25:14.000 : en:ON THE LAM
    01:34:20.000 : en:BLAZE OF GLORY
    01:39:50.000 : en:SECOND CHANCE

    Скриншоты

    Скачать .torrent

    Скачать торрент-файл бесплатно и на максимальной скорости!

    Как скачивать? · Что такое торрент? · Рейтинг и ограничения

    !ВНИМАНИЕ!
    Сайт не распространяет и не хранит электронные версии произведений, а занимается лишь лишь предоставлением доступа к создаваемому пользователями каталогу ссылок на торрент-файлы, которые содержат только списки хеш-сумм, убедительная просьба с жалобами обращаться напрямую к пользователю. Файлы для обмена на трекере предоставлены пользователями сайта, и администрация не несёт ответственности за их содержание. Просьба не заливать файлы, защищенные авторскими правами, а также файлы нелегального содержания!


    _________________
    [Профиль] [ЛС]
    Показать сообщения:    
    Ответить на тему

    Текущее время: Сегодня, в 04:11

    Часовой пояс: GMT + 2



    Вы не можете начинать темы
    Вы не можете отвечать на сообщения
    Вы не можете редактировать свои сообщения
    Вы не можете удалять свои сообщения
    Вы не можете голосовать в опросах
    Вы не можете прикреплять файлы к сообщениям
    Вы не можете скачивать файлы