Register  ·  Log in
Forgot password?

  • Приключения Бэйли: Рождественский герой / Adventures of Bailey: Christmas Hero (Стив Франке / Steve Franke) [2012, США, семейный, приключения, HDTV 1080i] DVO

    Reply to topic
    Author Message


    Post 24-Jul-2016 22:57



    Приключения Бэйли: Рождественский герой / Adventures of Bailey: Christmas Hero
    Страна: США
    Жанр: Семейный, приключения
    Год выпуска: 2012
    Продолжительность: 01:22:48
    Перевод: Профессиональный (двухголосый закадровый)
    Cубтитры: нет
    Оригинальная аудиодорожка: нет
    Режиссер: Стив Франке / Steve Franke
    В ролях: Рик Шью, Трей Бампасс, Кристин Галиэн, Лизбет Карденас, Грант Джеймс, Джули Эриксон, Кензи Пэллоун
    Описание: Невероятные рождественские приключения пса Бейли, которые помогут ему понять весь смысл Рождества и почувствовать дух этого праздника.
    Качество видео: HDTV 1080i
    Формат видео: TS
    Видео: 1920x1080 (16:9), 25.000 fps, AVC, ~9046 Kbps, 0.174 bits/pixel
    Аудио: Russian, 48.0 KHz, AC3, 2 ch, 384 Kbps


    ID : 1 (0x1)
    Complete name : Adventures of Bailey - Christmas Hero 2012 HD-Kino DVO.ts
    Format : MPEG-TS
    File size : 5.74 GiB
    Duration : 1 h 22 min
    Overall bit rate mode : Variable
    Overall bit rate : 9 924 kb/s
    Maximum Overall bit rate : 35.5 Mb/s
    ID : 4113 (0x1011)
    Menu ID : 1 (0x1)
    Format : AVC
    Format/Info : Advanced Video Codec
    Format profile : High@L4
    Format settings, CABAC : Yes
    Format settings, ReFrames : 4 frames
    Codec ID : 27
    Duration : 1 h 22 min
    Bit rate : 9 046 kb/s
    Width : 1 920 pixels
    Height : 1 080 pixels
    Display aspect ratio : 16:9
    Frame rate : 25.000 FPS
    Standard : Component
    Color space : YUV
    Chroma subsampling : 4:2:0
    Bit depth : 8 bits
    Scan type : Interlaced
    Scan type, store method : Separated fields
    Scan order : Top Field First
    Bits/(Pixel*Frame) : 0.174
    Stream size : 5.23 GiB (91%)
    Color range : Limited
    Color primaries : BT.709
    Transfer characteristics : BT.709
    Matrix coefficients : BT.709
    ID : 4352 (0x1100)
    Menu ID : 1 (0x1)
    Format : AC-3
    Format/Info : Audio Coding 3
    Mode extension : CM (complete main)
    Format settings, Endianness : Big
    Codec ID : 129
    Duration : 1 h 22 min
    Bit rate mode : Constant
    Bit rate : 384 kb/s
    Channel(s) : 2 channels
    Channel positions : Front: L R
    Sampling rate : 48.0 kHz
    Frame rate : 31.250 FPS (1536 spf)
    Compression mode : Lossy
    Stream size : 227 MiB (4%)
    Language : Russian


    Download .torrent

    Download free and at maximum speed!

    How to Download? · What is a torrent? · Ratings and Limitations

    The site does not extend and does not store electronic(digital) versions of products, and only gives access to a reference catalogue created by users on torrent-files which contain only lists of the hash-sums, the earnest entreaty, with complaints(abuse) to access directly to the user. Files for an exchange on tracker are given by users of a site, and the administration does not bear the responsibility for their maintenance. The request to not fill in the files protected by copyrights, and also files of the illegal maintenance!

    [Profile] [PM]
    Display posts from previous:    
    Reply to topic

    The time now is: Today 16:42

    All times are GMT + 3 Hours

    You cannot post new topics in this forum
    You cannot reply to topics in this forum
    You cannot edit your posts in this forum
    You cannot delete your posts in this forum
    You cannot vote in polls in this forum
    You cannot attach files in this forum
    You cannot download files in this forum