BitTorrentTracker PerecTracker.org
BitTorrentTracker PerecTracker.org
    
Регистрация  ·  Вход
 
 · 
Забыли пароль?

  • Приключения Бэйли: Рождественский герой / Adventures of Bailey: Christmas Hero (Стив Франке / Steve Franke) [2012, США, семейный, приключения, HDTV 1080i] DVO

    Ответить на тему
     
    Автор Сообщение

    Light

    Создавать темы 24-Июл-2016 21:57

           

    [Цитировать]

    Приключения Бэйли: Рождественский герой / Adventures of Bailey: Christmas Hero
    Страна: США
    Жанр: Семейный, приключения
    Год выпуска: 2012
    Продолжительность: 01:22:48
    Перевод: Профессиональный (двухголосый закадровый)
    Cубтитры: нет
    Оригинальная аудиодорожка: нет
    Режиссер: Стив Франке / Steve Franke
    В ролях: Рик Шью, Трей Бампасс, Кристин Галиэн, Лизбет Карденас, Грант Джеймс, Джули Эриксон, Кензи Пэллоун
    Описание: Невероятные рождественские приключения пса Бейли, которые помогут ему понять весь смысл Рождества и почувствовать дух этого праздника.
    Семпл: http://sendfile.su/1251366
    Качество видео: HDTV 1080i
    Формат видео: TS
    Видео: 1920x1080 (16:9), 25.000 fps, AVC, ~9046 Kbps, 0.174 bits/pixel
    Аудио: Russian, 48.0 KHz, AC3, 2 ch, 384 Kbps

    MediaInfo

    General
    ID : 1 (0x1)
    Complete name : Adventures of Bailey - Christmas Hero 2012 HD-Kino DVO.ts
    Format : MPEG-TS
    File size : 5.74 GiB
    Duration : 1 h 22 min
    Overall bit rate mode : Variable
    Overall bit rate : 9 924 kb/s
    Maximum Overall bit rate : 35.5 Mb/s
    Video
    ID : 4113 (0x1011)
    Menu ID : 1 (0x1)
    Format : AVC
    Format/Info : Advanced Video Codec
    Format profile : High@L4
    Format settings, CABAC : Yes
    Format settings, ReFrames : 4 frames
    Codec ID : 27
    Duration : 1 h 22 min
    Bit rate : 9 046 kb/s
    Width : 1 920 pixels
    Height : 1 080 pixels
    Display aspect ratio : 16:9
    Frame rate : 25.000 FPS
    Standard : Component
    Color space : YUV
    Chroma subsampling : 4:2:0
    Bit depth : 8 bits
    Scan type : Interlaced
    Scan type, store method : Separated fields
    Scan order : Top Field First
    Bits/(Pixel*Frame) : 0.174
    Stream size : 5.23 GiB (91%)
    Color range : Limited
    Color primaries : BT.709
    Transfer characteristics : BT.709
    Matrix coefficients : BT.709
    Audio
    ID : 4352 (0x1100)
    Menu ID : 1 (0x1)
    Format : AC-3
    Format/Info : Audio Coding 3
    Mode extension : CM (complete main)
    Format settings, Endianness : Big
    Codec ID : 129
    Duration : 1 h 22 min
    Bit rate mode : Constant
    Bit rate : 384 kb/s
    Channel(s) : 2 channels
    Channel positions : Front: L R
    Sampling rate : 48.0 kHz
    Frame rate : 31.250 FPS (1536 spf)
    Compression mode : Lossy
    Stream size : 227 MiB (4%)
    Language : Russian

    Скриншоты

    Скачать .torrent

    Скачать торрент-файл бесплатно и на максимальной скорости!

    Как скачивать? · Что такое торрент? · Рейтинг и ограничения

    !ВНИМАНИЕ!
    Сайт не распространяет и не хранит электронные версии произведений, а занимается лишь лишь предоставлением доступа к создаваемому пользователями каталогу ссылок на торрент-файлы, которые содержат только списки хеш-сумм, убедительная просьба с жалобами обращаться напрямую к пользователю. Файлы для обмена на трекере предоставлены пользователями сайта, и администрация не несёт ответственности за их содержание. Просьба не заливать файлы, защищенные авторскими правами, а также файлы нелегального содержания!


    _________________
    [Профиль] [ЛС]
    Показать сообщения:    
    Ответить на тему

    Текущее время: Сегодня, в 10:47

    Часовой пояс: GMT + 2



    Вы не можете начинать темы
    Вы не можете отвечать на сообщения
    Вы не можете редактировать свои сообщения
    Вы не можете удалять свои сообщения
    Вы не можете голосовать в опросах
    Вы не можете прикреплять файлы к сообщениям
    Вы не можете скачивать файлы