Register  ·  Log in
Forgot password?

  • Приключения Бэйли: Ночь в Каутауне / Adventures of Bailey: A Night in Cowtown (Стив Франке / Steve Franke) [2013, США, семейный, приключения, HDTV 1080i] DVO

    Reply to topic
    Author Message


    Post 24-Jul-2016 22:57



    Приключения Бэйли: Ночь в Каутауне / Adventures of Bailey: A Night in Cowtown
    Страна: США
    Жанр: Семейный, приключения
    Год выпуска: 2013
    Продолжительность: 01:21:22
    Перевод: Профессиональный (двухголосый закадровый)
    Cубтитры: нет
    Оригинальная аудиодорожка: нет
    Режиссер: Стив Франке / Steve Franke
    В ролях: Фрэнк Мосли, Марк Хэнсон, Трей Бампасс, Кристин Галиэн, Макс Хартман, Рик Шью, Мэйсон Дай, Кензи Пэллоун...
    Описание: Бейли снова возвращается к нам! Очаровательный пес поселился в новом доме и у него есть поклонница - собака-соседка. Когда в опасность попадает ее брат Пит, Бэйли отправляется в опасное приключение в город Каутаун. Вместе с друзьями, он сталкивается с множеством препятствий. Можно ли спасти Пита и завоевать любовь своей возлюбленной? Смотрите новые увлекательные приключения Бэйли всей семьей!
    Качество видео: HDTV 1080i
    Формат видео: ts
    Видео: 1920x1080 (16:9), 25.000 fps, AVC, ~6679 Kbps, 0.129 bits/pixel
    Аудио: Russian, 48.0 KHz, AC3, 2 ch, 384 Kbps


    GeneralID : 1 (0x1)Complete name : Adventures of Bailey - A Night in Cowtown 2013 HD-Kino DVO.tsFormat : MPEG-TSFile size : 4.23 GiBDuration : 1 h 21 minOverall bit rate mode : VariableOverall bit rate : 7 434 kb/sMaximum Overall bit rate : 35.5 Mb/s
    VideoID : 4113 (0x1011)Menu ID : 1 (0x1)Format : AVCFormat/Info : Advanced Video CodecFormat profile : High@L4Format settings, CABAC : YesFormat settings, ReFrames : 4 framesCodec ID : 27Duration : 1 h 21 minBit rate : 6 679 kb/sWidth : 1 920 pixelsHeight : 1 080 pixelsDisplay aspect ratio : 16:9Frame rate : 25.000 FPSStandard : ComponentColor space : YUVChroma subsampling : 4:2:0Bit depth : 8 bitsScan type : InterlacedScan type, store method : Separated fieldsScan order : Top Field FirstBits/(Pixel*Frame) : 0.129Stream size : 3.80 GiB (90%)Color range : LimitedColor primaries : BT.709Transfer characteristics : BT.709Matrix coefficients : BT.709
    AudioID : 4352 (0x1100)Menu ID : 1 (0x1)Format : AC-3Format/Info : Audio Coding 3Mode extension : CM (complete main)Format settings, Endianness : BigCodec ID : 129Duration : 1 h 21 minBit rate mode : ConstantBit rate : 384 kb/sChannel(s) : 2 channelsChannel positions : Front: L RSampling rate : 48.0 kHzFrame rate : 31.250 FPS (1536 spf)Compression mode : LossyStream size : 224 MiB (5%)Language : Russian


    Download .torrent

    Download free and at maximum speed!

    How to Download? · What is a torrent? · Ratings and Limitations

    The site does not extend and does not store electronic(digital) versions of products, and only gives access to a reference catalogue created by users on torrent-files which contain only lists of the hash-sums, the earnest entreaty, with complaints(abuse) to access directly to the user. Files for an exchange on tracker are given by users of a site, and the administration does not bear the responsibility for their maintenance. The request to not fill in the files protected by copyrights, and also files of the illegal maintenance!

    [Profile] [PM]
    Display posts from previous:    
    Reply to topic

    The time now is: Today 10:13

    All times are GMT + 3 Hours

    You cannot post new topics in this forum
    You cannot reply to topics in this forum
    You cannot edit your posts in this forum
    You cannot delete your posts in this forum
    You cannot vote in polls in this forum
    You cannot attach files in this forum
    You cannot download files in this forum