BitTorrentTracker PerecTracker.org
BitTorrentTracker PerecTracker.org
    
Регистрация  ·  Вход
 
 · 
Забыли пароль?

  • Приключения Бэйли: Ночь в Каутауне / Adventures of Bailey: A Night in Cowtown (Стив Франке / Steve Franke) [2013, США, семейный, приключения, HDTV 1080i] DVO

    Ответить на тему
     
    Автор Сообщение

    Light

    Создавать темы 24-Июл-2016 21:57

           

    [Цитировать]

    Приключения Бэйли: Ночь в Каутауне / Adventures of Bailey: A Night in Cowtown
    Страна: США
    Жанр: Семейный, приключения
    Год выпуска: 2013
    Продолжительность: 01:21:22
    Перевод: Профессиональный (двухголосый закадровый)
    Cубтитры: нет
    Оригинальная аудиодорожка: нет
    Режиссер: Стив Франке / Steve Franke
    В ролях: Фрэнк Мосли, Марк Хэнсон, Трей Бампасс, Кристин Галиэн, Макс Хартман, Рик Шью, Мэйсон Дай, Кензи Пэллоун...
    Описание: Бейли снова возвращается к нам! Очаровательный пес поселился в новом доме и у него есть поклонница - собака-соседка. Когда в опасность попадает ее брат Пит, Бэйли отправляется в опасное приключение в город Каутаун. Вместе с друзьями, он сталкивается с множеством препятствий. Можно ли спасти Пита и завоевать любовь своей возлюбленной? Смотрите новые увлекательные приключения Бэйли всей семьей!
    Семпл: http://sendfile.su/1251367
    Качество видео: HDTV 1080i
    Формат видео: ts
    Видео: 1920x1080 (16:9), 25.000 fps, AVC, ~6679 Kbps, 0.129 bits/pixel
    Аудио: Russian, 48.0 KHz, AC3, 2 ch, 384 Kbps

    MediaInfo

    GeneralID : 1 (0x1)Complete name : Adventures of Bailey - A Night in Cowtown 2013 HD-Kino DVO.tsFormat : MPEG-TSFile size : 4.23 GiBDuration : 1 h 21 minOverall bit rate mode : VariableOverall bit rate : 7 434 kb/sMaximum Overall bit rate : 35.5 Mb/s
    VideoID : 4113 (0x1011)Menu ID : 1 (0x1)Format : AVCFormat/Info : Advanced Video CodecFormat profile : High@L4Format settings, CABAC : YesFormat settings, ReFrames : 4 framesCodec ID : 27Duration : 1 h 21 minBit rate : 6 679 kb/sWidth : 1 920 pixelsHeight : 1 080 pixelsDisplay aspect ratio : 16:9Frame rate : 25.000 FPSStandard : ComponentColor space : YUVChroma subsampling : 4:2:0Bit depth : 8 bitsScan type : InterlacedScan type, store method : Separated fieldsScan order : Top Field FirstBits/(Pixel*Frame) : 0.129Stream size : 3.80 GiB (90%)Color range : LimitedColor primaries : BT.709Transfer characteristics : BT.709Matrix coefficients : BT.709
    AudioID : 4352 (0x1100)Menu ID : 1 (0x1)Format : AC-3Format/Info : Audio Coding 3Mode extension : CM (complete main)Format settings, Endianness : BigCodec ID : 129Duration : 1 h 21 minBit rate mode : ConstantBit rate : 384 kb/sChannel(s) : 2 channelsChannel positions : Front: L RSampling rate : 48.0 kHzFrame rate : 31.250 FPS (1536 spf)Compression mode : LossyStream size : 224 MiB (5%)Language : Russian

    Скриншоты

    Скачать .torrent

    Скачать торрент-файл бесплатно и на максимальной скорости!

    Как скачивать? · Что такое торрент? · Рейтинг и ограничения

    !ВНИМАНИЕ!
    Сайт не распространяет и не хранит электронные версии произведений, а занимается лишь лишь предоставлением доступа к создаваемому пользователями каталогу ссылок на торрент-файлы, которые содержат только списки хеш-сумм, убедительная просьба с жалобами обращаться напрямую к пользователю. Файлы для обмена на трекере предоставлены пользователями сайта, и администрация не несёт ответственности за их содержание. Просьба не заливать файлы, защищенные авторскими правами, а также файлы нелегального содержания!


    _________________
    [Профиль] [ЛС]
    Показать сообщения:    
    Ответить на тему

    Текущее время: Сегодня, в 00:08

    Часовой пояс: GMT + 2



    Вы не можете начинать темы
    Вы не можете отвечать на сообщения
    Вы не можете редактировать свои сообщения
    Вы не можете удалять свои сообщения
    Вы не можете голосовать в опросах
    Вы не можете прикреплять файлы к сообщениям
    Вы не можете скачивать файлы