BitTorrentTracker PerecTracker.org
BitTorrentTracker PerecTracker.org
    
Регистрация  ·  Вход
 
 · 
Забыли пароль?

  • Робинзон Крузо: Очень обитаемый остров / Robinson Crusoe (Винсент Кестелут / Vincent Kesteloot, Бен Стассен / Ben Stassen) [2016, Франция, Бельгия, мультфильм, комедия, приключения, BDRip-AVC] Dub

    Ответить на тему
     
    Автор Сообщение

    Flirldrerve

    Создавать темы 24-Июл-2016 21:57

           

    [Цитировать]

    Робинзон Крузо: Очень обитаемый остров
    Robinson Crusoe
    «Однажды на берег очень даже обитаемого острова...»

    Страна: Франция, Бельгия
    Жанр: мультфильм, комедия, приключения
    Год выпуска: 2016
    Продолжительность: 01:29:37
    Перевод: Профессиональный (полное дублирование) [Blu-ray RUS]
    Cубтитры: нет
    Оригинальная аудиодорожка: нет
    Режиссер: Винсент Кестелут / Vincent Kesteloot, Бен Стассен / Ben Stassen
    В ролях: Рон Аллен, Джордж Бэббит, Лайла Берзиньш, Илька Бессин, Джои Камен, Джефф Дусетте, Джефф Дусетте, Сэнди Фокс, Дитер Халлерворден, Кайл Херберт, Мэриев Херингтон, Дэвид Ховард
    Описание:
    Все знают историю о Робинзоне Крузо, попавшем на необитаемый остров. Однако, как же можно назвать его необитаемым, если он населен разнообразными веселыми животными и птицами? Они очень удивились, впервые встретив это странное существо, и даже приняли его за морское чудовище. Попугаю по кличке Вторник и его друзьям — хамелеону, тапиру и другим обитателям острова предстоит поближе познакомиться с незнакомым зверем «человеком» и вместе с ним пережить массу опасных и веселых приключений.


    Автор рипа: stalkerok
    Сэмпл
    Качество видео: BDRip-AVC [Robinson Crusoe (2016) Blu-ray RUS 1080p AVC DTS-HD 5.1 HDCLUB]
    Формат видео: MKV
    Видео: 2989 Кбит/сек, 1152*482 (2,40:1), в 24,000 кадра/сек, AVC
    Аудио: русский, 448 Кбит/сек, 48 КГц, 16 бит, 5.1, AC3
    Навигация по главам: есть

    MediaInfo

    Общее
    Уникальный идентификатор : 185231325023294596272957048815520045769 (0x8B5A416BBB09C9928B5ECFB8DE87DAC9)
    Полное имя : M:\2Rips\Robinson Crusoe\Robinson.Crusoe.2016.BDRip-AVC.Dub.2.18Gb.stalkerok.new-team.mkv
    Формат : Matroska
    Версия формата : Version 4 / Version 2
    Размер файла : 2,15 Гбайт
    Продолжительность : 1 ч. 29 м.
    Общий поток : 3439 Кбит/сек
    Название фильма : Robinson Crusoe (2016) (Rip by stalkerok)
    Дата кодирования : UTC 2016-07-24 09:54:02
    Программа кодирования : mkvmerge v8.6.1 ('Flying') 64bit
    Библиотека кодирования : libebml v1.3.3 + libmatroska v1.4.4
    Видео
    Идентификатор : 1
    Формат : AVC
    Формат/Информация : Advanced Video Codec
    Профиль формата : High@L4.1
    Параметр CABAC формата : Да
    Параметр ReFrames формата : 14 кадров
    Идентификатор кодека : V_MPEG4/ISO/AVC
    Продолжительность : 1 ч. 29 м.
    Битрейт : 2989 Кбит/сек
    Ширина : 1152 пикселя
    Высота : 482 пикселя
    Соотношение сторон : 2,40:1
    Соотношение сторон в оригинале : 2,40:1
    Режим частоты кадров : Постоянный
    Частота кадров : 24,000 кадра/сек
    Цветовое пространство : YUV
    Субдискретизация насыщенности : 4:2:0
    Битовая глубина : 8 бит
    Тип развёртки : Прогрессивная
    Бит/(Пиксели*Кадры) : 0.224
    Размер потока : 1,87 Гбайт (87%)
    Заголовок : Robinson Crusoe (2016) (Rip by stalkerok)
    Библиотека кодирования : x264 core 148 r2705+54 9f484c1 t_mod_Custom [8-bit@all X86_64]
    Настройки программы : cabac=1 / ref=14 / deblock=1:-1:-1 / analyse=0x3:0x133 / me=umh / subme=10 / psy=1 / fade_compensate=0.00 / psy_rd=1.00:0.00 / mixed_ref=1 / me_range=32 / chroma_me=1 / trellis=2 / 8x8dct=1 / cqm=0 / deadzone=21,11 / fast_pskip=0 / chroma_qp_offset=-2 / threads=12 / lookahead_threads=3 / sliced_threads=0 / nr=0 / decimate=0 / interlaced=0 / bluray_compat=0 / constrained_intra=0 / fgo=0 / bframes=14 / b_pyramid=2 / b_adapt=2 / b_bias=0 / direct=3 / weightb=1 / open_gop=0 / weightp=2 / keyint=240 / keyint_min=23 / scenecut=40 / intra_refresh=0 / rc_lookahead=60 / rc=2pass / mbtree=0 / bitrate=2989 / ratetol=1.0 / qcomp=0.65 / qpmin=0:0:0 / qpmax=69:69:69 / qpstep=4 / cplxblur=20.0 / qblur=0.5 / vbv_maxrate=50000 / vbv_bufsize=62500 / nal_hrd=none / filler=0 / ip_ratio=1.40 / pb_ratio=1.30 / aq=3:0.80 / aq-sensitivity=10.00 / aq-factor=1.00:1.00:1.00 / aq2=0 / aq3=0
    Default : Да
    Forced : Нет
    Аудио
    Идентификатор : 2
    Формат : AC-3
    Формат/Информация : Audio Coding 3
    Расширение режима : CM (complete main)
    Параметр Endianness формата : Big
    Идентификатор кодека : A_AC3
    Продолжительность : 1 ч. 29 м.
    Вид битрейта : Постоянный
    Битрейт : 448 Кбит/сек
    Каналы : 6 каналов
    Расположение каналов : Front: L C R, Side: L R, LFE
    Частота : 48,0 КГц
    Частота кадров : 31,250 кадров/сек (1536 spf)
    Метод сжатия : С потерями
    Размер потока : 287 Мбайт (13%)
    Язык : Russian
    Default : Да
    Forced : Нет
    Меню
    00:00:00.000 : en:Chapter 1
    00:00:12.833 : en:Chapter 2
    00:10:55.458 : en:Chapter 3
    00:24:01.083 : en:Chapter 4
    00:34:15.791 : en:Chapter 5
    00:46:22.125 : en:Chapter 6
    00:59:04.958 : en:Chapter 7
    01:10:23.625 : en:Chapter 8
    01:19:01.291 : en:Chapter 9

    Скриншоты

    Скачать .torrent

    Скачать торрент-файл бесплатно и на максимальной скорости!

    Как скачивать? · Что такое торрент? · Рейтинг и ограничения

    !ВНИМАНИЕ!
    Сайт не распространяет и не хранит электронные версии произведений, а занимается лишь лишь предоставлением доступа к создаваемому пользователями каталогу ссылок на торрент-файлы, которые содержат только списки хеш-сумм, убедительная просьба с жалобами обращаться напрямую к пользователю. Файлы для обмена на трекере предоставлены пользователями сайта, и администрация не несёт ответственности за их содержание. Просьба не заливать файлы, защищенные авторскими правами, а также файлы нелегального содержания!


    _________________
    [Профиль] [ЛС]
    Показать сообщения:    
    Ответить на тему

    Текущее время: Сегодня, в 21:24

    Часовой пояс: GMT + 2



    Вы не можете начинать темы
    Вы не можете отвечать на сообщения
    Вы не можете редактировать свои сообщения
    Вы не можете удалять свои сообщения
    Вы не можете голосовать в опросах
    Вы не можете прикреплять файлы к сообщениям
    Вы не можете скачивать файлы