BitTorrentTracker PerecTracker.org
BitTorrentTracker PerecTracker.org
    
Регистрация  ·  Вход
 
 · 
Забыли пароль?

  • Эва и Леон / L\'echappee belle / Eva & Leon (Эмили Шерпитель / Emilie Cherpitel) [2015, Франция, драма, DVB] Original (Fre) + Sub (Rus, Eng, Fre, Deu)

    Ответить на тему
     
    Автор Сообщение

    Light

    Создавать темы 24-Июл-2016 21:57

           

    [Цитировать]

    Эва и Леон
    L'échappée belle-Страна: Франция
    Жанр: драма
    Год выпуска: 2015
    Продолжительность: 01:11:56Перевод: Субтитры (русский перевод К.Семенюк, Éclair Media)
    Cубтитры: русские, английские, французские, немецкие, нидерландские
    Оригинальная аудиодорожка: французский
    Режиссер: Эмили Шерпитель / Emilie Cherpitel
    В ролях: Клотильда Эсм / Clotilde Hesme (Eva), Флориан Лемер / Florian Lemaire (Léon), Янник Шуара / Yannick Choirat (Simon), Питер Койот / Peter Coyote (Le père d'Eva), Кезиа Джонс / Keziah Jones (John), Клотильда Куро / Clotilde Courau (Lucie)
    Описание: Своеобразный полнометражный пересказ истории Эвы и Леона из собственной короткометражки Эмили Шерпитель "Субботние девушки" (2011).
    Ранним утром в уличном кафе к Эве подсел паренёк и попросил горячего шоколада. Ему 11 лет, и он не знает своих родителей, он сбежал из приюта. Ей 35, и у нее нет детей. Она свободна, своенравна и живет безмятежной жизнью. Он рассудительный и умный не по годам мальчик. Так начнутся их непростые отношения: женщины, желающей иметь ребенка, и мальчика, стремящегося обрести мать...
    Доп. информация: Hot Bird (13.0°E) TV5MONDE Europe DVB-S
    Участник Seoul International Youth Film Festival 2015.

    Качество видео: DVB
    Формат видео: MKV
    Видео: MPEG Video 2, 720x576@1024x576 (16:9), 25 fps, ~2820 kbps avg, 0.272 bit/pixel
    Аудио: MPEG Audio 2, 2 ch, 48 kHz, 192 kbps - французский
    Формат субтитров: softsub (SRT)

    Пример субтитров

    100:00:41,703 --> 00:00:44,506-До свидания.-До свидания.
    200:00:44,506 --> 00:00:47,506-Доброе утро, Лионель.-Доброе утро, Эва.
    300:00:50,864 --> 00:00:52,262Спасибо.
    400:00:52,262 --> 00:00:55,262-Всего хорошего.-Спасибо.
    500:03:19,343 --> 00:03:22,343ЭВА И ЛЕОН
    600:03:31,665 --> 00:03:34,665Спасибо.
    700:03:45,778 --> 00:03:47,455Можно присесть?
    800:03:47,455 --> 00:03:50,455Садись, если хочешь.
    900:04:01,670 --> 00:04:03,620Угости меня горячим шоколадом.
    1000:04:03,620 --> 00:04:06,421-Что?Пожалуйста.
    1100:04:06,421 --> 00:04:09,421Ладно.Чашку горячего шоколада.
    1200:04:17,620 --> 00:04:20,620Ты откуда взялся?
    1300:04:21,748 --> 00:04:24,301Оттуда.
    1400:04:24,301 --> 00:04:26,702Как тебя зовут?
    1500:04:26,702 --> 00:04:29,702-Леон. А тебя?-Эва.
    1600:04:35,058 --> 00:04:37,178Кто твой отец?
    1700:04:37,178 --> 00:04:39,865Наполеон.
    1800:04:39,865 --> 00:04:42,865Какой ты скромный!
    1900:04:43,654 --> 00:04:45,734Серьезно?
    2000:04:45,734 --> 00:04:48,734Наполеон умер 200 лет назад.

    MediaInfo

    GeneralUnique ID : 244888745316410147279928540821194275503 (0xB83BDB54F09A885EAB3B01C5CC97FAAF)Complete name : [apreder]L'echappee_belle(2015)DVB.mkvFormat : MatroskaFormat version : Version 2File size : 1.54 GiBDuration : 1 h 11 minOverall bit rate : 3 073 kb/sMovie name : L'йchappйe belleReleased date : 2015-06-17Encoded date : UTC 2016-07-23 09:30:59Writing application : mkvmerge v9.3.1 ('Mask Machine') 64bitWriting library : libebml v1.3.4 + libmatroska v1.4.5Cover : YesAttachments : cover.jpg / small_cover.jpgACTOR : Clotilde Hesme, Florian LemaireDIRECTOR : Emilie CherpitelGENRE : DramaIMDB : tt4313594KEYWORDS : perectracker.orgLAW_RATING : 16+
    VideoID : 1Format : MPEG VideoFormat version : Version 2Format profile : Main@MainFormat settings, BVOP : YesFormat settings, Matrix : CustomFormat settings, GOP : M=4, N=12Format settings, picture structure : FrameCodec ID : V_MPEG2Codec ID/Info : MPEG 1 or 2 VideoDuration : 1 h 11 minBit rate : 2 820 kb/sMaximum bit rate : 3 200 kb/sWidth : 720 pixelsHeight : 576 pixelsDisplay aspect ratio : 16:9Frame rate mode : ConstantFrame rate : 25.000 FPSStandard : PALColor space : YUVChroma subsampling : 4:2:0Bit depth : 8 bitsScan type : InterlacedScan order : Top Field FirstCompression mode : LossyBits/(Pixel*Frame) : 0.272Stream size : 1.42 GiB (92%)Default : YesForced : No
    AudioID : 2Format : MPEG AudioFormat version : Version 1Format profile : Layer 2Codec ID : A_MPEG/L2Codec ID/Hint : MP2Duration : 1 h 11 minBit rate mode : ConstantBit rate : 192 kb/sChannel(s) : 2 channelsSampling rate : 48.0 kHzCompression mode : LossyStream size : 98.8 MiB (6%)Language : FrenchDefault : YesForced : No
    Text #1ID : 3Format : UTF-8Codec ID : S_TEXT/UTF8Codec ID/Info : UTF-8 Plain TextLanguage : RussianDefault : NoForced : No
    Text #2ID : 4Format : UTF-8Codec ID : S_TEXT/UTF8Codec ID/Info : UTF-8 Plain TextLanguage : EnglishDefault : NoForced : No
    Text #3ID : 5Format : UTF-8Codec ID : S_TEXT/UTF8Codec ID/Info : UTF-8 Plain TextLanguage : FrenchDefault : NoForced : No
    Text #4ID : 6Format : UTF-8Codec ID : S_TEXT/UTF8Codec ID/Info : UTF-8 Plain TextLanguage : GermanDefault : NoForced : No
    Text #5ID : 7Format : UTF-8Codec ID : S_TEXT/UTF8Codec ID/Info : UTF-8 Plain TextLanguage : DutchDefault : NoForced : No

    Скриншот c названием фильма

    Скриншоты


    Резервные скриншоты


    -
    Скачать .torrent

    Скачать торрент-файл бесплатно и на максимальной скорости!

    Как скачивать? · Что такое торрент? · Рейтинг и ограничения

    !ВНИМАНИЕ!
    Сайт не распространяет и не хранит электронные версии произведений, а занимается лишь лишь предоставлением доступа к создаваемому пользователями каталогу ссылок на торрент-файлы, которые содержат только списки хеш-сумм, убедительная просьба с жалобами обращаться напрямую к пользователю. Файлы для обмена на трекере предоставлены пользователями сайта, и администрация не несёт ответственности за их содержание. Просьба не заливать файлы, защищенные авторскими правами, а также файлы нелегального содержания!


    _________________
    [Профиль] [ЛС]
    Показать сообщения:    
    Ответить на тему

    Текущее время: Сегодня, в 20:02

    Часовой пояс: GMT + 2



    Вы не можете начинать темы
    Вы не можете отвечать на сообщения
    Вы не можете редактировать свои сообщения
    Вы не можете удалять свои сообщения
    Вы не можете голосовать в опросах
    Вы не можете прикреплять файлы к сообщениям
    Вы не можете скачивать файлы