BitTorrentTracker PerecTracker.org
BitTorrentTracker PerecTracker.org
    
Регистрация  ·  Вход
 
 · 
Забыли пароль?

  • Страсть / Искушение / The Right Temptation (Линдон Чаббак / Lyndon Chubbuck) [2000, США, триллер, драма, мелодрама, WEB-DL 720p] DVO (М1) + AVO (Сонькин) + Sub Eng + Original Eng

    Ответить на тему
     
    Автор Сообщение

    Light

    Создавать темы 24-Июл-2016 01:07

           

    [Цитировать]

    Страсть / Искушение / The Right Temptation
    Страна: США
    Студия: Award Entertainment, Tempting Productions Inc.
    Жанр: триллер, драма, мелодрама
    Год выпуска: 2000
    Продолжительность: 01:32:20
    Перевод: Профессиональный (двухголосый закадровый) М1-Первый Московский
    Перевод 2: Авторский (одноголосый закадровый) В. Сонькин
    Cубтитры: английские
    Оригинальная аудиодорожка: английский
    Режиссер: Линдон Чаббак / Lyndon Chubbuck
    В ролях: Кифер Сазерленд, Ребекка Де Морнэй, Дана Дилэйни, Адам Болдуин, Джоанна Кэссиди, Майкл Ральф, Роберт Джейн, Нил Флинн, Патрик О’Нил, Дония Кьяриция
    Описание: Частного детектива Дериан нанимает ревнивая жена по имени Антея, чтобы уличить своего мужа Майкла в измене. Последив за Майклом, Дериан убеждается, что он примерный муж, пытающийся спасти разваливающийся брак.
    Но Антея в это не верит. И она просит Дериан пофлиртовать с ее мужем. Однако, как это зачастую бывает, соблазнительница сама становится соблазненной.


    Sample
    Тип релиза: WEB-DL 720p
    Контейнер: MKV
    Видео: MPEG4 AVC Video, H264, 16:9, 1280x718, 23.976 fps, 3858 kbps
    Аудио: Russian (AC3, 2 ch, 192 kbps, 16 bits, 48.0 KHz) - DVO
    Аудио 2: Russian (AC3, 2 ch, 192 kbps, 16 bits, 48.0 KHz) - AVO
    Аудио 3: English (AC3, 6 ch, 384 kbps, 16 bits, 48.0 KHz) - оригинал
    Формат субтитров: softsub (SRT)

    MediaInfo

    General
    Unique ID : 203641741451266477955771754424029360989 (0x9933F908084FE466B38BC36BCE47335D)
    Complete name : E:\The Right Temptation 2000 WEB-DL 720p.mkv
    Format : Matroska
    Format version : Version 4 / Version 2
    File size : 3.04 GiB
    Duration : 1h 32mn
    Overall bit rate : 4 720 Kbps
    Encoded date : UTC 2016-07-18 17:00:58
    Writing application : mkvmerge v6.1.0 ('Old Devil') built on Mar 2 2013 14:32:37
    Writing library : libebml v1.3.0 + libmatroska v1.4.0
    Video
    ID : 1
    Format : AVC
    Format/Info : Advanced Video Codec
    Format profile : High@L3.1
    Format settings, CABAC : No
    Format settings, ReFrames : 2 frames
    Codec ID : V_MPEG4/ISO/AVC
    Duration : 1h 32mn
    Bit rate : 3 858 Kbps
    Width : 1 280 pixels
    Height : 718 pixels
    Display aspect ratio : 16:9
    Frame rate mode : Constant
    Frame rate : 23.976 fps
    Color space : YUV
    Chroma subsampling : 4:2:0
    Bit depth : 8 bits
    Scan type : Progressive
    Bits/(Pixel*Frame) : 0.175
    Stream size : 2.49 GiB (82%)
    Language : English
    Default : No
    Forced : No
    Color primaries : BT.709
    Transfer characteristics : BT.709
    Matrix coefficients : BT.709
    Audio #1
    ID : 2
    Format : AC-3
    Format/Info : Audio Coding 3
    Mode extension : CM (complete main)
    Format settings, Endianness : Big
    Codec ID : A_AC3
    Duration : 1h 32mn
    Bit rate mode : Constant
    Bit rate : 192 Kbps
    Channel count : 2 channels
    Channel positions : Front: L R
    Sampling rate : 48.0 KHz
    Bit depth : 16 bits
    Compression mode : Lossy
    Stream size : 127 MiB (4%)
    Title : DVO
    Language : Russian
    Default : Yes
    Forced : No
    Audio #2
    ID : 3
    Format : AC-3
    Format/Info : Audio Coding 3
    Mode extension : CM (complete main)
    Format settings, Endianness : Big
    Codec ID : A_AC3
    Duration : 1h 32mn
    Bit rate mode : Constant
    Bit rate : 192 Kbps
    Channel count : 2 channels
    Channel positions : Front: L R
    Sampling rate : 48.0 KHz
    Bit depth : 16 bits
    Compression mode : Lossy
    Stream size : 127 MiB (4%)
    Title : AVO
    Language : Russian
    Default : No
    Forced : No
    Audio #3
    ID : 4
    Format : AC-3
    Format/Info : Audio Coding 3
    Mode extension : CM (complete main)
    Format settings, Endianness : Big
    Codec ID : A_AC3
    Duration : 1h 32mn
    Bit rate mode : Constant
    Bit rate : 384 Kbps
    Channel count : 6 channels
    Channel positions : Front: L C R, Side: L R, LFE
    Sampling rate : 48.0 KHz
    Bit depth : 16 bits
    Compression mode : Lossy
    Stream size : 254 MiB (8%)
    Language : English
    Default : No
    Forced : No
    Text
    ID : 5
    Format : UTF-8
    Codec ID : S_TEXT/UTF8
    Codec ID/Info : UTF-8 Plain Text
    Language : English
    Default : No
    Forced : No

    Скриншоты

    Скачать .torrent

    Скачать торрент-файл бесплатно и на максимальной скорости!

    Как скачивать? · Что такое торрент? · Рейтинг и ограничения

    !ВНИМАНИЕ!
    Сайт не распространяет и не хранит электронные версии произведений, а занимается лишь лишь предоставлением доступа к создаваемому пользователями каталогу ссылок на торрент-файлы, которые содержат только списки хеш-сумм, убедительная просьба с жалобами обращаться напрямую к пользователю. Файлы для обмена на трекере предоставлены пользователями сайта, и администрация не несёт ответственности за их содержание. Просьба не заливать файлы, защищенные авторскими правами, а также файлы нелегального содержания!


    _________________
    [Профиль] [ЛС]
    Показать сообщения:    
    Ответить на тему

    Текущее время: Сегодня, в 16:15

    Часовой пояс: GMT + 2



    Вы не можете начинать темы
    Вы не можете отвечать на сообщения
    Вы не можете редактировать свои сообщения
    Вы не можете удалять свои сообщения
    Вы не можете голосовать в опросах
    Вы не можете прикреплять файлы к сообщениям
    Вы не можете скачивать файлы