BitTorrentTracker PerecTracker.org
BitTorrentTracker PerecTracker.org
    
Регистрация  ·  Вход
 
 · 
Забыли пароль?

  • Обратная сторона Луны / Серии: 1-16 из 16 (Александр Котт) [2012, драма, детектив, фэнтези, BDRip - AVC]

    Ответить на тему
     
    Автор Сообщение

    rechyn

    Создавать темы 23-Июл-2016 22:03

           

    [Цитировать]

    Обратная сторона Луны-Год выпуска: 2012
    Производство: Россия, Компания "Кинослово" по заказу компании "Среда"
    Жанр: драма, детектив, фэнтези
    Продолжительность: 1 серия ~ 01:40:00, 2-16 серии ~ 00:55:00
    Субтитры: нет-Режиссёр: Александр Котт-В ролях: Павел Деревянко, Светлана Смирнова-Марцинкевич, Анна Цуканова-Котт, Татьяна Масс, Роман Чора, Андрюс Паулавичюс, Светлана Солянкина, Юрий Гурьев, Прадьюмна Чаттерджи, Денис Курочка, Сергей Беляев, Анна Шикуть, Семен Трескунов, Ирина Марцинкевич, Роман Дервоед, Максим Костромыкин, Карина Разумовская-Описание: Вот уже три года старший лейтенант полиции Михаил Соловьев ловит Маньяка, который убивает молодых женщин. Остался последний шаг - взять убийцу. В день ареста преступника Михаил узнает, что умер его отец. Во время задержания, бандит сбивает Соловьева автомобилем.
    Полицейский приходит в себя в больнице, в 1979 году, в теле своего отца. Герой в шоке от происходящего. В больнице парень знакомится с медсестрой Катей, которая искренне о нем заботится. Вскоре Михаил знакомится с сослуживцем - отец тоже работал в милиции. В прошлом Михаил сталкивается с 10-летним самим собой, а также со своей мамой, которая считает его своим мужем.
    Вскоре Соловьев понимает, что Маньяк уже орудует здесь. Они перенеслись в прошлое одновременно. Теперь Михаилу придется ловить его здесь, в практически незнакомой обстановке, без друзей и знакомых...-Доп. Информация: Спасибо HDClub за предоставленный исходник!-Любая реклама ОТСУТСТВУЕТ!!!-Все раздачи сериала
    Сэмпл-Качество: BDRip - AVC [Рип с Blu-Ray 720p]

    Формат: MKV
    Видео кодек: H.264
    Аудио кодек: AC3
    Видео: x264, 1024 х 576 (16:9), 24,000 кадр/сек, ~ 1623 Кбит/сек, ~ 0.115 bit/pixel
    Аудио: AC3, 48.0 KHz, 6 канала(ов), 384 kbs

    MI

    Полное имя : Обратная сторона Луны.01 серия.2012.BDRip-AVC.Metla111.mkv
    Формат : Matroska
    Версия формата : Version 2
    Размер файла : 1,41 Гбайт
    Продолжительность : 1 ч. 40 м.
    Общий поток : 2008 Кбит/сек
    Дата кодирования : UTC 2013-01-31 08:02:09
    Программа кодирования : mkvmerge v5.8.0 ('No Sleep / Pillow') built on Sep 2 2012 15:37:04
    Библиотека кодирования : libebml v1.2.3 + libmatroska v1.3.0
    Видео
    Идентификатор : 1
    Формат : AVC
    Формат/Информация : Advanced Video Codec
    Профиль формата : High@L4.0
    Параметр CABAC формата : Да
    Параметр ReFrames формата : 12 кадров
    Идентификатор кодека : V_MPEG4/ISO/AVC
    Продолжительность : 1 ч. 40 м.
    Битрейт : 1623 Кбит/сек
    Ширина : 1024 пикселя
    Высота : 576 пикселей
    Соотношение сторон : 16:9
    Режим частоты кадров : Постоянный
    Частота кадров : 23,976 кадра/сек
    Цветовое пространство : YUV
    Субдискретизация насыщенности : 4:2:0
    Битовая глубина : 8 бит
    Тип развёртки : Прогрессивная
    Бит/(Пиксели*Кадры) : 0.115
    Размер потока : 1,12 Гбайт (79%)
    Библиотека кодирования : x264 core 125 r2208 d9d2288
    Настройки программы : cabac=1 / ref=12 / deblock=1:-3:-3 / analyse=0x3:0x113 / me=umh / subme=9 / psy=1 / psy_rd=1.00:0.20 / mixed_ref=1 / me_range=32 / chroma_me=1 / trellis=2 / 8x8dct=1 / cqm=0 / deadzone=21,11 / fast_pskip=1 / chroma_qp_offset=-3 / threads=12 / lookahead_threads=2 / sliced_threads=0 / nr=0 / decimate=0 / interlaced=0 / bluray_compat=0 / constrained_intra=0 / bframes=10 / b_pyramid=2 / b_adapt=2 / b_bias=0 / direct=3 / weightb=1 / open_gop=0 / weightp=2 / keyint=250 / keyint_min=23 / scenecut=40 / intra_refresh=0 / rc=2pass / mbtree=0 / bitrate=1623 / ratetol=1.0 / qcomp=0.70 / qpmin=0 / qpmax=69 / qpstep=4 / cplxblur=20.0 / qblur=0.5 / ip_ratio=1.40 / pb_ratio=1.30 / aq=2:1.00
    Default : Да
    Forced : Нет
    Основные цвета : BT.709
    Характеристики трансфера : BT.709
    Коэффициенты матрицы : BT.709
    Аудио
    Идентификатор : 2
    Формат : AC-3
    Формат/Информация : Audio Coding 3
    Расширение режима : CM (complete main)
    Параметр Endianness формата : Big
    Идентификатор кодека : A_AC3
    Продолжительность : 1 ч. 40 м.
    Вид битрейта : Постоянный
    Битрейт : 384 Кбит/сек
    Каналы : 6 каналов
    Расположение каналов : Front: L C R, Side: L R, LFE
    Частота : 48,0 КГц
    Битовая глубина : 16 бит
    Метод сжатия : С потерями
    Размер потока : 277 Мбайт (19%)
    Default : Да
    Forced : Нет : No

    Log - x264

    raw [info]: 1024x576p 1:1 @ 24000/1001 fps (cfr)
    x264 [info]: using SAR=1/1
    x264 [info]: using cpu capabilities: MMX2 SSE2Fast SSSE3 FastShuffle SSE4.2 AVX XOP FMA4 FMA3 SSEMisalign LZCNT BMI1 TBM
    x264 [info]: profile High, level 4.0
    x264 [info]: frame I:1010 Avg QP:17.64 size: 58693
    x264 [info]: frame P:37714 Avg QP:20.43 size: 17973
    x264 [info]: frame B:106387 Avg QP:22.60 size: 4606
    x264 [info]: consecutive B-frames: 3.6% 4.8% 11.4% 38.5% 16.4% 19.1% 3.4% 2.0% 0.4% 0.3% 0.2%
    x264 [info]: mb I I16..4: 12.6% 69.6% 17.9%
    x264 [info]: mb P I16..4: 5.1% 13.3% 1.3% P16..4: 42.7% 16.6% 7.9% 0.0% 0.0% skip:13.1%
    x264 [info]: mb B I16..4: 0.5% 0.8% 0.1% B16..8: 38.2% 5.9% 1.3% direct: 3.6% skip:49.6% L0:39.5% L1:49.2% BI:11.2%
    x264 [info]: 8x8 transform intra:66.5% inter:65.3%
    x264 [info]: direct mvs spatial:98.5% temporal:1.5%
    x264 [info]: coded y,uvDC,uvAC intra: 61.8% 61.7% 29.3% inter: 15.4% 18.6% 4.5%
    x264 [info]: i16 v,h,dc,p: 34% 16% 8% 42%
    x264 [info]: i8 v,h,dc,ddl,ddr,vr,hd,vl,hu: 15% 11% 8% 8% 12% 13% 12% 11% 11%
    x264 [info]: i4 v,h,dc,ddl,ddr,vr,hd,vl,hu: 14% 10% 5% 8% 14% 14% 13% 11% 12%
    x264 [info]: i8c dc,h,v,p: 43% 22% 20% 15%
    x264 [info]: Weighted P-Frames: Y:7.7% UV:4.0%
    x264 [info]: ref P L0: 51.7% 13.5% 16.8% 4.5% 3.7% 2.4% 2.2% 1.1% 1.1% 0.9% 0.9% 0.9% 0.2% 0.0%
    x264 [info]: ref B L0: 82.4% 9.5% 3.3% 1.5% 1.0% 0.8% 0.6% 0.4% 0.3% 0.2% 0.1%
    x264 [info]: ref B L1: 95.0% 5.0%
    x264 [info]: kb/s:1622.09

    Скриншоты

    -
    Скачать .torrent

    Скачать торрент-файл бесплатно и на максимальной скорости!

    Как скачивать? · Что такое торрент? · Рейтинг и ограничения

    !ВНИМАНИЕ!
    Сайт не распространяет и не хранит электронные версии произведений, а занимается лишь лишь предоставлением доступа к создаваемому пользователями каталогу ссылок на торрент-файлы, которые содержат только списки хеш-сумм, убедительная просьба с жалобами обращаться напрямую к пользователю. Файлы для обмена на трекере предоставлены пользователями сайта, и администрация не несёт ответственности за их содержание. Просьба не заливать файлы, защищенные авторскими правами, а также файлы нелегального содержания!


    _________________
    [Профиль] [ЛС]
    Показать сообщения:    
    Ответить на тему

    Текущее время: Сегодня, в 21:56

    Часовой пояс: GMT + 2



    Вы не можете начинать темы
    Вы не можете отвечать на сообщения
    Вы не можете редактировать свои сообщения
    Вы не можете удалять свои сообщения
    Вы не можете голосовать в опросах
    Вы не можете прикреплять файлы к сообщениям
    Вы не можете скачивать файлы