BitTorrentTracker PerecTracker.org
BitTorrentTracker PerecTracker.org
    
Регистрация  ·  Вход
 
 · 
Забыли пароль?

  • Обратная сторона Луны 2 / Серии: 1-16 из 16 (Александр Котт) [2016, мистический детектив, WEBRip]

    Ответить на тему
     
    Автор Сообщение

    rechyn

    Создавать темы 23-Июл-2016 21:53

           

    [Цитировать]

    Обратная сторона Луны 2-Год выпуска: 2016
    Производство: Россия, Кинокомпания "Слово" по заказу компании "Среда"
    Жанр: мистический детектив
    Продолжительность: 00:53:00
    Субтитры: нет-Режиссёр: Александр Котт-В ролях:
    Павел Деревянко, Светлана Смирнова-Марцинкевич, Иван Шибанов, Анатолий Горячев, Андрей Шибаршин, Михаил Грубов, Алёна Константинова, Сергей Карякин, Маргарита Исайкова, Арсений Перель, Олег Алмазов, Сергей Галахов, Ирина Марцинкевич, Пётр Кудряшов, Ирина Нарбекова, Дмитрий Бероев, Евгения Крегжде, Максим Виторган, Михаил Горевой, Юрий Анпилогов, Владимир Носик, Валентин Самохин, Арсений Кудряшов, Александр Сирин, Сергей Цепов, Юрий Нифонтов, Григорий Перель, Алеся Пуховая, Павел Баршак, Мария Смольникова, Евгений Стычкин, Армен Арушанян, Амбарцум Кабанян, Наталья Позднякова, Андрей Леонов, Сергей Петров (II), Владимир Симонов, Ирина Основина, Галина Звягинцева, Дмитрий Муляр, Александр Андриенко, Макс Барских, Дмитрий Горевой, Андрей Душечкин, Владимир Кристовский, Наталия Курдюбова, Максим Литовченко, Евгений Меньшов, Андрей Мерзликин, Евгений Никитин, Ирина Рахманова, Ёла Санько, Анна Слю, Анна Уколова, Игорь Хрипунов, Даниил Шигапов, Екатерина Мельник-Описание: Куда на этот раз забросит судьба Михаила Соловьева? Каким временем или параллельной реальностью продюсеры и авторы 2ого сезона удивят зрителя? Одно можно сказать с уверенностью: в этом сезоне капитан Соловьев еще раз попробует поймать неуловимого рыжего маньяка, прорвавшегося с ним в это время, и постарается найти свое время. Ведь, времена не выбирают, в них живут и умирают.-Все раздачи сериала
    Сэмпл-Качество: WEBRip
    Формат: AVI
    Видео кодек: XviD
    Аудио кодек: AC3
    Видео: 720x400 (1.80:1), 25 fps, XviD build 73 ~1448 kbps avg, 0.22 bit/pixel
    Аудио: 48 kHz, AC3 Dolby Digital, 2/0 (L,R) ch, ~192.00 kbps avg

    MI

    General
    Complete name : X:\раздачи\Обратная.сторона.Луны.2.2016.WEB-DLRip.RG.Russkie.serialy.&.Files-x.Обратная.сторона.Луны.2.2016.WEB-DLRip.RG.Russkie.serialy.&.Files-x.avi
    Format : AVI
    Format/Info : Audio Video Interleave
    File size : 601 MiB
    Duration : 52mn 39s
    Overall bit rate : 1 596 Kbps
    Writing application : VirtualDubMod 1.5.10.3 (build 2550/release)
    Writing library : VirtualDubMod build 2550/release
    Video
    ID : 0
    Format : MPEG-4 Visual
    Format profile : Advanced Simple@L5
    Format settings, BVOP : 1
    Format settings, QPel : No
    Format settings, GMC : No warppoints
    Format settings, Matrix : Custom
    Codec ID : XVID
    Codec ID/Hint : XviD
    Duration : 52mn 39s
    Bit rate : 1 394 Kbps
    Width : 720 pixels
    Height : 400 pixels
    Display aspect ratio : 16:9
    Frame rate : 25.000 fps
    Color space : YUV
    Chroma subsampling : 4:2:0
    Bit depth : 8 bits
    Scan type : Progressive
    Compression mode : Lossy
    Bits/(Pixel*Frame) : 0.194
    Stream size : 525 MiB (87%)
    Writing library : XviD 73
    Audio
    ID : 1
    Format : AC-3
    Format/Info : Audio Coding 3
    Mode extension : CM (complete main)
    Format settings, Endianness : Big
    Codec ID : 2000
    Duration : 52mn 39s
    Bit rate mode : Constant
    Bit rate : 192 Kbps
    Channel(s) : 2 channels
    Channel positions : Front: L R
    Sampling rate : 48.0 KHz
    Frame rate : 31.250 fps (1536 spf)
    Compression mode : Lossy
    Stream size : 72.3 MiB (12%)
    Alignment : Split accross interleaves
    Interleave, duration : 40 ms (1.00 video frame)
    Interleave, preload duration : 500 ms

    Скриншоты

    Скачать .torrent

    Скачать торрент-файл бесплатно и на максимальной скорости!

    Как скачивать? · Что такое торрент? · Рейтинг и ограничения

    !ВНИМАНИЕ!
    Сайт не распространяет и не хранит электронные версии произведений, а занимается лишь лишь предоставлением доступа к создаваемому пользователями каталогу ссылок на торрент-файлы, которые содержат только списки хеш-сумм, убедительная просьба с жалобами обращаться напрямую к пользователю. Файлы для обмена на трекере предоставлены пользователями сайта, и администрация не несёт ответственности за их содержание. Просьба не заливать файлы, защищенные авторскими правами, а также файлы нелегального содержания!


    _________________
    [Профиль] [ЛС]
    Показать сообщения:    
    Ответить на тему

    Текущее время: Сегодня, в 02:36

    Часовой пояс: GMT + 2



    Вы не можете начинать темы
    Вы не можете отвечать на сообщения
    Вы не можете редактировать свои сообщения
    Вы не можете удалять свои сообщения
    Вы не можете голосовать в опросах
    Вы не можете прикреплять файлы к сообщениям
    Вы не можете скачивать файлы