BitTorrentTracker PerecTracker.org
BitTorrentTracker PerecTracker.org
    
Регистрация  ·  Вход
 
 · 
Забыли пароль?

  • Карантин / Containment / Сезон: 1 / Серии: 1-13 из 13 (Чарльз Бисон, Дэвид Наттер, Лэнс Андерсон, Дэвид Бойд) [2016, драма, WEB-DLRip] MVO (NewStudio) + Original

    Ответить на тему
     
    Автор Сообщение

    rechyn

    Создавать темы 23-Июл-2016 21:30

           

    [Цитировать]

    КАРАНТИНContainment-Год выпуска: 2016
    Страна: США
    Жанр: драма
    Продолжительность: ~00:42:00
    Перевод: Профессиональный (многоголосый закадровый) NewStudio-Режиссёр: Чарльз Бисон, Дэвид Наттер, Лэнс Андерсон, Дэвид Бойд
    В ролях: Дэвид Гяси, Кристен Гутоски, Клаудия Блэк, Джордж Янг, Майлз Долеак, Надин Левингтон, Йоханс Майлс-Описание: Американский город Атланта, штат Джорджия, внезапно оказывается под властью загадочного вируса. С целью сдержать распространение опасной эпидемии правительство страны объявляет центр города карантинной зоной. Несколько героев оказываются в заточении на небольшой территории. Вскоре не только вирус, но и чудовищная паника ставит под угрозу жизнь и безопасность людей. Ученым необходимо как можно скорее найти лекарство, иначе город поглотит хаос.
    Сериал «Карантин» снят по мотивам одноименной бельгийской драмы.-Доп. информация: Без рекламных ВидеоАудио вставок-Альтернативные раздачи
    Сэмпл-Качество: WEB-DLRip
    Формат: AVI
    Видео: XviD, 720x400 (16:9), 23,976 fps, ~1500 kbps
    Аудио Rus.: MP3, 48 kHz, 2 ch, 128 kbps
    Аудио Eng.: MP3, 48 kHz, 2 ch, 128 kbps
    Субтитры: отсутствуют

    Список серий

    01. Пилот Pilot
    02. Мне умирать, тебе жить I to Die, You to Live
    03. Ненавидеть солнце Be Angry at the Sun
    04. В слезах и молчании With Silence and Tears
    05. Овца среди волков Like a Sheep Among Wolves
    06. Он успокаивал нарастающее недовольство He Stilled the Rising Tumult
    07. Ад Inferno
    08. Во всём есть трещина There Is a Crack in Everything
    09. Царство разделилось само в себе A Kingdom Divided against Itself
    10. Время родиться... A Time to Be Born...
    11. Назад пути нет Nothing Gold Can Stay
    12. "Да" - единственное средство существования Yes Is the Only Living Thing
    13. Дорога в рай Path to Paradise

    MediaInfo

    Полное имя                               : Containment.S01.WEB-DLRip.RusEng.NewStudio\Containment.S01E01.WEB-DLRip.RusEng.NewStudio.L.avi
    Формат                                   : AVI
    Формат/Информация                        : Audio Video Interleave
    Размер файла                             : 550 Мбайт
    Продолжительность                        : 42 м.
    Общий поток                              : 1819 Кбит/сек
    Программа кодирования                    : VirtualDubMod 1.5.10.3 (build 2550/release)
    Библиотека кодирования                   : VirtualDubMod build 2550/release
    Видео
    Идентификатор                            : 0
    Формат                                   : MPEG-4 Visual
    Профиль формата                          : Advanced Simple@L5
    Параметр BVOP формата                    : 1
    Параметр QPel формата                    : Нет
    Параметр GMC формата                     : Без точки перехода
    Параметр матрицы формата                 : Default (H.263)
    Идентификатор кодека                     : XVID
    Идентификатор кодека/Подсказка           : XviD
    Продолжительность                        : 42 м.
    Битрейт                                  : 1550 Кбит/сек
    Ширина                                   : 720 пикселей
    Высота                                   : 400 пикселей
    Соотношение сторон                       : 16:9
    Частота кадров                           : 23,976 кадра/сек
    Цветовое пространство                    : YUV
    Субдискретизация насыщенности            : 4:2:0
    Битовая глубина                          : 8 бит
    Тип развёртки                            : Прогрессивная
    Метод сжатия                             : С потерями
    Бит/(Пиксели*Кадры)                      : 0.224
    Размер потока                            : 468 Мбайт (85%)
    Библиотека кодирования                   : XviD 1.2.1 (UTC 2008-12-04)
    Аудио #1
    Идентификатор                            : 1
    Формат                                   : MPEG Audio
    Версия формата                           : Version 1
    Профиль формата                          : Layer 3
    Режим                                    : Joint stereo
    Расширение режима                        : MS Stereo
    Идентификатор кодека                     : 55
    Идентификатор кодека/Подсказка           : MP3
    Продолжительность                        : 42 м.
    Вид битрейта                             : Постоянный
    Битрейт                                  : 128 Кбит/сек
    Каналы                                   : 2 канала
    Частота                                  : 48,0 КГц
    Метод сжатия                             : С потерями
    Размер потока                            : 38,7 Мбайт (7%)
    Выравнивание                             : Соединение по промежуткам
    Продолжительность промежутка             : 42  мс. (1,00 видеокадр)
    Время предзагрузки промежутка            : 504  мс.
    Аудио #2
    Идентификатор                            : 2
    Формат                                   : MPEG Audio
    Версия формата                           : Version 1
    Профиль формата                          : Layer 3
    Режим                                    : Joint stereo
    Расширение режима                        : MS Stereo
    Идентификатор кодека                     : 55
    Идентификатор кодека/Подсказка           : MP3
    Продолжительность                        : 42 м.
    Вид битрейта                             : Постоянный
    Битрейт                                  : 128 Кбит/сек
    Каналы                                   : 2 канала
    Частота                                  : 48,0 КГц
    Метод сжатия                             : С потерями
    Размер потока                            : 38,7 Мбайт (7%)
    Выравнивание                             : Соединение по промежуткам
    Продолжительность промежутка             : 42  мс. (1,00 видеокадр)
    Время предзагрузки промежутка            : 504  мс.

    Скриншоты

    Скачать .torrent

    Скачать торрент-файл бесплатно и на максимальной скорости!

    Как скачивать? · Что такое торрент? · Рейтинг и ограничения

    !ВНИМАНИЕ!
    Сайт не распространяет и не хранит электронные версии произведений, а занимается лишь лишь предоставлением доступа к создаваемому пользователями каталогу ссылок на торрент-файлы, которые содержат только списки хеш-сумм, убедительная просьба с жалобами обращаться напрямую к пользователю. Файлы для обмена на трекере предоставлены пользователями сайта, и администрация не несёт ответственности за их содержание. Просьба не заливать файлы, защищенные авторскими правами, а также файлы нелегального содержания!


    _________________
    [Профиль] [ЛС]
    Показать сообщения:    
    Ответить на тему

    Текущее время: Сегодня, в 20:12

    Часовой пояс: GMT + 2



    Вы не можете начинать темы
    Вы не можете отвечать на сообщения
    Вы не можете редактировать свои сообщения
    Вы не можете удалять свои сообщения
    Вы не можете голосовать в опросах
    Вы не можете прикреплять файлы к сообщениям
    Вы не можете скачивать файлы