BitTorrentTracker PerecTracker.org
BitTorrentTracker PerecTracker.org
    
Регистрация  ·  Вход
 
 · 
Забыли пароль?

  • Сыновья Большой Медведицы / Die Söhne der großen Bärin / The Sons of Great Bear (Йозеф Мах / Josef Mach) [1966, Германия (ГДР), Югославия, вестерн, BDRip 720p] Dub + Sub Rus, Eng + Original Ger

    Ответить на тему
     
    Автор Сообщение

    Light

    Создавать темы 23-Июл-2016 20:55

           

    [Цитировать]

    Сыновья Большой Медведицы / Die Söhne der großen Bärin / The Sons of Great Bear
    Страна: Германия (ГДР), Югославия
    Жанр: вестерн
    Год выпуска: 1966
    Продолжительность: 01:27:44
    Перевод: Профессиональный (дублированный)
    Cубтитры: русские, английские
    Оригинальная аудиодорожка: немецкий-Режиссер: Йозеф Мах / Josef Mach-В ролях: Гойко Митич, Иржи Врстяла, Рольф Рёмер, Ганс Хардт-Хардтлофф, Герхард Рахольд, Хорст Йонишкан, Йозеф Майерчик, Йозеф Адамович, Милан Яблонски, Ханньо Хассе-Описание:
    Токей-Ито, вождь «сыновей Большой Медведицы» из племени дакота, приглашен лейтенантом Роучем в Форт-Смит. Токей-Ито опасается предательства белых и охотнее сражался бы против них вместе с верховным вождем Тачунка-Витко, но старейшины решили иначе. Когда он прибывает в Форт-Смит в сопровождении своего личного врага Фреда Кларка по кличке «Красный Лис», его подозрения сбываются. Белые хотят согнать индейцев с их земли, предоставленной им согласно договору, так как там найдено золото. Токей-Ито отказывается переселяться в резервацию с бесплодными землями, и его сажают в тюрьму.
    Победив непокорных индейцев и заставив их переселиться, белые выпускают Токей-Ито на свободу. Тем временем его соплеменники уже осознали свою ошибку; вместе с Токей-Ито они решают бежать в свободную Канаду. Начинается ожесточенное преследование. В то время как племя пересекает границу, Токей-Ито вступает в последний поединок к Красным Лисом. Сумеет ли он победить его...?-Релиз:
    | Рип от SbR-Качество видео: BDRip | Sample
    Формат видео: MKV
    Видео: 1280x546 at 25.000 fps, x264@L4.1, ~ 9500 kbps avg
    Аудио 1: Russian: 48 kHz, AC3, 2.0 ch, ~192 kbps avg |Дубляж|
    Аудио 2: German: 48 kHz, FLAC, 2.0 ch, ~370 kbps avg-Дополнительно
    Цитата:
    Цитата:

    • Сохранены оригинальные главы как на Blu-ray.
    • Спонсоры работы: ns112bel, DamnU2, gelom, bacchuster, Juve, serlim, dekapot, tambov68, MDV, arka, exact, ntktuf, chplintik13, lib72, larushkin1303, FoggyDew, irrlicht, malyaka, givi070, bambula2766, asquenko. Раздача золотом.
    • Русские субтитры - МАВЪР РЕКЪРДС.
    • Отдельная благодарность bbcby.

    MediaInfo

    Format                      : Matroska
    Format version              : Version 4 / Version 2
    File size                   : 6.17 GiB
    Duration                    : 1h 27mn
    Overall bit rate mode       : Variable
    Overall bit rate            : 10.1 Mbps
    Encoded date                : UTC 2016-07-17 18:13:56
    Writing application         : mkvmerge v8.3.0 ('Over the Horizon') 32bit
    Writing library             : libebml v1.3.1 + libmatroska v1.4.2
    Cover                       : Yes
    Attachments                 : cover.jpg
    Video
    ID                          : 1
    Format                      : AVC
    Format/Info                 : Advanced Video Codec
    Format profile              : High@L4.1
    Format settings, CABAC      : Yes
    Format settings, ReFrames   : 11 frames
    Codec ID                    : V_MPEG4/ISO/AVC
    Duration                    : 1h 27mn
    Bit rate                    : 9 500 Kbps
    Width                       : 1 280 pixels
    Height                      : 546 pixels
    Display aspect ratio        : 2.35:1
    Frame rate mode             : Constant
    Frame rate                  : 25.000 fps
    Color space                 : YUV
    Chroma subsampling          : 4:2:0
    Bit depth                   : 8 bits
    Scan type                   : Progressive
    Bits/(Pixel*Frame)          : 0.544
    Stream size                 : 5.82 GiB (94%)
    Writing library             : x264 core 148 r2705+54 9f484c1 t_mod_Custom [8-bit@all X86_64]
    Encoding settings           : cabac=1 / ref=11 / deblock=1:-3:-3 / analyse=0x3:0x133 / me=umh / subme=10 / psy=1 / fade_compensate=0.00 / psy_rd=1.10:0.05 / mixed_ref=1 / me_range=24 / chroma_me=1 / trellis=2 / 8x8dct=1 / cqm=0 / deadzone=21,11 / fast_pskip=0 / chroma_qp_offset=-3 / threads=6 / lookahead_threads=1 / sliced_threads=0 / nr=0 / decimate=1 / interlaced=0 / bluray_compat=0 / constrained_intra=0 / fgo=0 / bframes=5 / b_pyramid=2 / b_adapt=2 / b_bias=0 / direct=3 / weightb=1 / open_gop=0 / weightp=2 / keyint=250 / keyint_min=25 / scenecut=40 / intra_refresh=0 / rc=2pass / mbtree=0 / bitrate=9500 / ratetol=1.0 / qcomp=0.70 / qpmin=0:0:0 / qpmax=69:69:69 / qpstep=4 / cplxblur=20.0 / qblur=0.5 / ip_ratio=1.30 / pb_ratio=1.20 / aq=1:0.65 / aq-sensitivity=10.00 / aq-factor=1.00:1.00:1.00 / aq2=1:0.60 / aq2-sensitivity=15.00 / aq2-factor=1.00:1.00:1.00 / aq3=1:[0.50:0.50]:[0.50:0.50]:[0.50:0.50]:[0.50:0.50] / aq3-sensitivity=10.00 / aq3-factor=[1.00:1.00]:[1.00:1.00]:[1.00:1.00] / aq3-boundary=192:64:24
    Language                    : English
    Default                     : Yes
    Forced                      : No
    Color range                 : Limited
    Matrix coefficients         : BT.709
    Audio #1
    ID                          : 2
    Format                      : AC-3
    Format/Info                 : Audio Coding 3
    Mode extension              : CM (complete main)
    Format settings, Endianness : Big
    Codec ID                    : A_AC3
    Duration                    : 1h 27mn
    Bit rate mode               : Constant
    Bit rate                    : 192 Kbps
    Channel(s)                  : 2 channels
    Channel positions           : Front: L R
    Sampling rate               : 48.0 KHz
    Frame rate                  : 31.250 fps (1536 spf)
    Compression mode            : Lossy
    Stream size                 : 120 MiB (2%)
    Title                       : Дубляж
    Language                    : Russian
    Default                     : Yes
    Forced                      : No
    Audio #2
    ID                          : 3
    Format                      : FLAC
    Format/Info                 : Free Lossless Audio Codec
    Codec ID                    : A_FLAC
    Duration                    : 1h 27mn
    Bit rate mode               : Variable
    Bit rate                    : 370 Kbps
    Channel(s)                  : 2 channels
    Channel positions           : Front: L R
    Sampling rate               : 48.0 KHz
    Frame rate                  : 11.719 fps (4096 spf)
    Bit depth                   : 16 bits
    Stream size                 : 232 MiB (4%)
    Writing library             : libFLAC 1.2.1 (UTC 2007-09-17)
    Language                    : German
    Default                     : No
    Forced                      : No
    Text #1
    ID                          : 4
    Format                      : UTF-8
    Codec ID                    : S_TEXT/UTF8
    Codec ID/Info               : UTF-8 Plain Text
    Duration                    : 1h 26mn
    Bit rate                    : 42 bps
    Count of elements           : 425
    Stream size                 : 27.1 KiB (0%)
    Language                    : Russian
    Default                     : No
    Forced                      : No
    Text #2
    ID                          : 5
    Format                      : UTF-8
    Codec ID                    : S_TEXT/UTF8
    Codec ID/Info               : UTF-8 Plain Text
    Duration                    : 1h 6mn
    Bit rate                    : 23 bps
    Count of elements           : 393
    Stream size                 : 11.4 KiB (0%)
    Language                    : English
    Default                     : No
    Forced                      : No
    Menu
    00:00:00.000                : en:00:00:00.000
    00:10:01.160                : en:00:10:01.160
    00:22:24.360                : en:00:22:24.360
    00:34:27.040                : en:00:34:27.040
    00:40:19.360                : en:00:40:19.360
    00:47:44.600                : en:00:47:44.600
    00:53:12.800                : en:00:53:12.800
    01:01:03.800                : en:01:01:03.800
    01:06:34.200                : en:01:06:34.200
    01:11:10.880                : en:01:11:10.880
    01:15:58.480                : en:01:15:58.480
    01:22:30.680                : en:01:22:30.680

    Скриншоты

    Скачать .torrent

    Скачать торрент-файл бесплатно и на максимальной скорости!

    Как скачивать? · Что такое торрент? · Рейтинг и ограничения

    !ВНИМАНИЕ!
    Сайт не распространяет и не хранит электронные версии произведений, а занимается лишь лишь предоставлением доступа к создаваемому пользователями каталогу ссылок на торрент-файлы, которые содержат только списки хеш-сумм, убедительная просьба с жалобами обращаться напрямую к пользователю. Файлы для обмена на трекере предоставлены пользователями сайта, и администрация не несёт ответственности за их содержание. Просьба не заливать файлы, защищенные авторскими правами, а также файлы нелегального содержания!


    _________________
    [Профиль] [ЛС]
    Показать сообщения:    
    Ответить на тему

    Текущее время: Сегодня, в 16:30

    Часовой пояс: GMT + 2



    Вы не можете начинать темы
    Вы не можете отвечать на сообщения
    Вы не можете редактировать свои сообщения
    Вы не можете удалять свои сообщения
    Вы не можете голосовать в опросах
    Вы не можете прикреплять файлы к сообщениям
    Вы не можете скачивать файлы