BitTorrentTracker PerecTracker.org
BitTorrentTracker PerecTracker.org
    
Регистрация  ·  Вход
 
 · 
Забыли пароль?

  • В ночной тиши / Still of the Night (Роберт Бентон / Robert Benton) [1982, США, триллер, драма, криминал, детектив, BDRemux 1080p] MVO (5 канал) + Sub Eng + Original Eng

    Ответить на тему
     
    Автор Сообщение

    Light

    Создавать темы 23-Июл-2016 20:55

           

    [Цитировать]

    -В ночной тиши / Still of the Night-Страна: США
    Студия: United Artists
    Жанр: триллер, драма, криминал, детектив
    Год выпуска: 1982
    Продолжительность: 01:30:53-Перевод: Профессиональный (многоголосый закадровый) 5 канал
    Cубтитры: английские
    Оригинальная аудиодорожка: английский-Режиссер: Роберт Бентон / Robert Benton
    В ролях: Рой Шайдер, Мерил Стрип, Джессика Тэнди, Джо Грифази, Сэра Ботсфорд, Джозеф Соммер, Ирвинг Метцмэн, Ларри Джошуа…-Описание: Один из пациентов известного психиатра Сэма Райса - убит. Врач знакомится с любовницей жертвы. Он увлекается таинственной блондинкой по имени Брук, не смотря на то, что помнит слова убитого о том, что тот знал женщину, которая убила человека, и его беспокоит, не убьет ли она вновь…-Сэмпл-Тип релиза: BDRemux 1080p
    Контейнер: MKV
    Видео: MPEG-4 AVC Video / 24931 kbps / 1080p / 23,976 fps / 16:9 / High Profile 4.1
    Аудио: Russian / Dolby Digital Audio / 2.0 / 48 kHz / 192 kbps
    Аудио 2: English / DTS-HD Master Audio / 2.0 / 48 kHz / 1615 kbps / 16-bit (DTS Core: 2.0 / 48 kHz / 1509 kbps / 16-bit)
    Формат субтитров: softsub (SRT)

    MI

    GeneralUnique ID : 242775156047008978142301113937752072679 (0xB6A4CB55D4A5C472A722E0DBE959A1E7)Complete name : Z:\На хранении\В ночной тиши (1982. Still of the Night).mkvFormat : MatroskaFormat version : Version 4 / Version 2File size : 17.0 GiBDuration : 1h 30mnOverall bit rate mode : VariableOverall bit rate : 26.8 MbpsMovie name : Release for RuTrackerEncoded date : UTC 2016-07-17 23:18:07Writing application : mkvmerge v9.0.1 ('Obstacles') 64bitWriting library : libebml v1.3.3 + libmatroska v1.4.4Cover : YesAttachments : cover.jpg
    VideoID : 1Format : AVCFormat/Info : Advanced Video CodecFormat profile : High@L4.1Format settings, CABAC : YesFormat settings, ReFrames : 4 framesCodec ID : V_MPEG4/ISO/AVCDuration : 1h 30mnBit rate mode : VariableBit rate : 25.0 MbpsMaximum bit rate : 35.0 MbpsWidth : 1 920 pixelsHeight : 1 080 pixelsDisplay aspect ratio : 16:9Frame rate mode : ConstantFrame rate : 23.976 (24000/1001) fpsStandard : NTSCColor space : YUVChroma subsampling : 4:2:0Bit depth : 8 bitsScan type : ProgressiveBits/(Pixel*Frame) : 0.502Stream size : 15.9 GiB (93%)Title : STILL_OF_THE_NIGHT_1982_REMUX_HDCLUBLanguage : EnglishDefault : YesForced : NoColor range : LimitedColor primaries : BT.709Transfer characteristics : BT.709Matrix coefficients : BT.709
    Audio #1ID : 2Format : AC-3Format/Info : Audio Coding 3Mode extension : CM (complete main)Format settings, Endianness : BigCodec ID : A_AC3Duration : 1h 30mnBit rate mode : ConstantBit rate : 192 KbpsChannel(s) : 2 channelsChannel positions : Front: L RSampling rate : 48.0 KHzFrame rate : 31.250 fps (1536 spf)Compression mode : LossyStream size : 125 MiB (1%)Title : MVO [Петербург 5-й канал]Language : RussianDefault : YesForced : No
    Audio #2ID : 3Format : DTSFormat/Info : Digital Theater SystemsFormat profile : MA / CoreMode : 16Format settings, Endianness : BigCodec ID : A_DTSDuration : 1h 30mnBit rate mode : Variable / ConstantBit rate : 1 618 Kbps / 1 509 KbpsChannel(s) : 2 channelsChannel positions : Front: L RSampling rate : 48.0 KHzFrame rate : 93.750 fps (512 spf)Bit depth : 16 bitsCompression mode : Lossless / LossyStream size : 1.03 GiB (6%)Language : EnglishDefault : NoForced : No
    TextID : 4Format : UTF-8Codec ID : S_TEXT/UTF8Codec ID/Info : UTF-8 Plain TextDuration : 1h 24mnBit rate : 56 bpsCount of elements : 954Stream size : 35.0 KiB (0%)Default : YesForced : No
    Menu00:00:00.000 : en:00:00:00.00000:09:55.469 : en:00:09:55.46900:21:46.930 : en:00:21:46.93000:30:07.972 : en:00:30:07.97200:37:30.289 : en:00:37:30.28900:50:44.332 : en:00:50:44.33201:02:08.891 : en:01:02:08.89101:10:52.539 : en:01:10:52.539
    Скриншоты

    Зеркало


    Цитата:
    Цитата:

    • Релиз Spiellberg и
    • Сохранены оригинальные главы как на Blu-ray.
    Скачать .torrent

    Скачать торрент-файл бесплатно и на максимальной скорости!

    Как скачивать? · Что такое торрент? · Рейтинг и ограничения

    !ВНИМАНИЕ!
    Сайт не распространяет и не хранит электронные версии произведений, а занимается лишь лишь предоставлением доступа к создаваемому пользователями каталогу ссылок на торрент-файлы, которые содержат только списки хеш-сумм, убедительная просьба с жалобами обращаться напрямую к пользователю. Файлы для обмена на трекере предоставлены пользователями сайта, и администрация не несёт ответственности за их содержание. Просьба не заливать файлы, защищенные авторскими правами, а также файлы нелегального содержания!


    _________________
    [Профиль] [ЛС]
    Показать сообщения:    
    Ответить на тему

    Текущее время: Сегодня, в 09:57

    Часовой пояс: GMT + 2



    Вы не можете начинать темы
    Вы не можете отвечать на сообщения
    Вы не можете редактировать свои сообщения
    Вы не можете удалять свои сообщения
    Вы не можете голосовать в опросах
    Вы не можете прикреплять файлы к сообщениям
    Вы не можете скачивать файлы