BitTorrentTracker PerecTracker.org
BitTorrentTracker PerecTracker.org
    
Регистрация  ·  Вход
 
 · 
Забыли пароль?

  • [ATV3] Репортерша / Whiskey Tango Foxtrot (Джон Рекуа / John Requa ) [2016, США, Драма, комедия, военный, биография, BDRip, HD (1080p)] DUB + Original + sub (rus, eng)

    Ответить на тему
     
    Автор Сообщение

    rechyn

    Создавать темы 23-Июл-2016 20:55

           

    [Цитировать]

    Репортерша / Whiskey Tango Foxtrot
    -
    6.544 / 10 6.70 / 10
    -Год выпуска: 2016
    Страна: США
    Жанр: Драма, комедия, военный, биография
    Продолжительность: 01:51:48
    Перевод: Дублированный (iTunes)
    Оригинальная аудиодорожка: Есть
    Cубтитры: Русские форсированные, Английские форсированные, Русские, Английские
    Режиссёр: Джон Рекуа
    Сценарий: Роберт Кэрлок, Ким Баркер
    Продюсер: Йен Брайс, Тина Фей, Лорн Майклз
    Оператор: Хавьер Гробет
    Композитор: Ник Урата
    Художник: Бет Микл, Derek Jensen, Элиз Дж. Виола
    Монтаж: Ян Ковач
    В ролях: Тина Фей, Марго Робби, Мартин Фриман, Альфред Молина, Кристофер Эбботт, Билли Боб Торнтон, Николас Браун, Стивен Пикок, Шейла Ванд, Эван Йоникит
    Бюджет: $35 000 000
    Сборы в США: $23 083 334
    Мировая премьера: 4 марта 2016
    Релиз на DVD: 15 сентября 2016, «Новый Диск»
    Релиз на Blu-Ray: 15 сентября 2016, «Новый Диск»
    Описание: Осознав, что она завязла в повседневной рутине, репортер Ким Бейкер решает встряхнуться и сменить кабинетные будни в Нью-Йорке на опасную работу в Афганистане. Вдали от дома и полностью за пределами собственной зоны комфорта, шокированная местными обычаями Ким заводит дружбу с рискованной репортершей Таней Вандерпоел, суровым Полковником и обаятельным фотожурналистом, которые помогают ей освоиться в этом сумасшедшем новом мире. Окруженная хаосом, Ким открывает свое истинное призвание - рисковать всем для поиска очередной главной новости.-Качество исходника: BDRemux (HDClub)
    Качество: BDRip
    Тип: HD (1080p)
    Контейнер: M4V
    Видео: H.264, 1920x1080, 16:9, 8 000 Kbps, 23.976 fps
    Аудио 1: Русский/Дублированный (iTunes), AAC / 2.0 / 156 Kbps / 48.0 KHz
    Аудио 2: Английский/Оригинальная дорожка , AAC / 2.0 / 157 Kbps / 48.0 KHz
    Аудио 3: Русский/Дублированный (iTunes), AC-3 / 5.1 / 384 Kbps / 48.0 KHz
    Аудио 4: Английский/Оригинальная дорожка , AC-3 / 5.1 / 640 Kbps / 48.0 KHz
    Субтитры 1: Русские форсированные
    Субтитры 2: Английские форсированные
    Субтитры 3: Русские полные
    Субтитры 4: Английские полные
    -

    iTunes Meta Tags

    Sort Name: Whiskey Tango Foxtrot
    XID: Apple:vendor_id:2016-841790
    contentID: 1081990650
    Copyright: © MMXV Paramount Pictures Corporation. All rights Reserved.
    Screenwriters: Роберт Кэрлок, Ким Баркер
    Producers: Йен Брайс, Тина Фей, Лорн Майклз
    Director: Гленн Фикарра, Джон Рекуа
    Cast: Тина Фей, Марго Робби, Мартин Фриман, Альфред Молина, Кристофер Эбботт, Билли Боб Торнтон, Николас Браун, Стивен Пикок, Шейла Ванд, Эван Йоникит, Даниил Эльдаров
    Studio: Paramount
    Rating: 5
    Long Description: Осознав, что она завязла в повседневной рутине, репортер Ким Бейкер решает встряхнуться и сменить кабинетные будни в Нью-Йорке на опасную работу в Афганистане. Вдали от дома и полностью за пределами собственной зоны комфорта, шокированная местными обычаями Ким заводит дружбу с рискованной репортершей Таней Вандерпоел, суровым Полковником и обаятельным фотожурналистом, которые помогают ей освоиться в этом сумасшедшем новом мире. Окруженная хаосом, Ким открывает свое истинное призвание - рисковать всем для поиска очередной главной новости.
    Description: Осознав, что она завязла в повседневной рутине, репортер Ким Бейкер решает встряхнуться и сменить кабинетные будни в Нью-Йорке на опасную работу в Афганистане.
    Release Date: 2016-03-04T08:00:00Z
    Genre: Drama
    Artist: Glenn Ficarra & John Requa
    Name: Whiskey Tango Foxtrot

    MediaInfo

    General
    Complete name : /Users/imac/HandBrake/Whiskey Tango Foxtrot (1080p HD).m4v
    Format : MPEG-4
    Codec ID : M4V
    File size : 7.28 GiB
    Duration : 1h 51mn
    Overall bit rate mode : Variable
    Overall bit rate : 9 324 Kbps
    Movie name : Whiskey Tango Foxtrot
    Performer : Glenn Ficarra & John Requa
    Director : Гленн Фикарра / Джон Рекуа
    Actor : Тина Фей / Марго Робби / Мартин Фриман / Альфред Молина / Кристофер Эбботт / Билли Боб Торнтон / Николас Браун / Стивен Пикок / Шейла Ванд / Эван Йоникит / Даниил Эльдаров
    Screenplay by : Роберт Кэрлок / Ким Баркер
    Producer : Йен Брайс / Тина Фей / Лорн Майклз
    Production studio : Paramount
    Genre : Drama
    ContentType : Short Film
    Description : Осознав, что она завязла в повседневной рутине, репортер Ким Бейкер решает встряхнуться и сменить кабинетные будни в Нью-Йорке на опасную работу в Афганистане.
    Recorded date : UTC 2016-03-04 08:00:00
    Encoded date : UTC 2016-07-23 11:32:16
    Tagged date : UTC 2016-07-23 11:38:49
    Copyright : © MMXV Paramount Pictures Corporation. All rights Reserved.
    Cover : Yes
    Rating : None
    Title/Sort : Whiskey Tango Foxtrot
    LongDescription : Осознав, что она завязла в повседневной рутине, репортер Ким Бейкер решает встряхнуться и сменить кабинетные будни в Нью-Йорке на опасную работу в Афганистане. Вдали от дома и полностью за пределами собственной зоны комфорта, шокированная местными обычаями Ким заводит дружбу с рискованной репортершей Таней Вандерпоел, суровым Полковником и обаятельным фотожурналистом, которые помогают ей освоиться в этом сумасшедшем новом мире. Окруженная хаосом, Ким открывает свое истинное призвание - рисковать всем для поиска очередной главной новости.
    AppleStoreCatalogID : 1081990650
    Vendor : Apple:vendor_id:2016-841790
    ContentRating : mpaa|R|400|
    Video #1
    ID : 1
    Format : AVC
    Format/Info : Advanced Video Codec
    Format profile : High@L4
    Format settings, CABAC : Yes
    Format settings, ReFrames : 4 frames
    Codec ID : avc1
    Codec ID/Info : Advanced Video Coding
    Duration : 1h 51mn
    Source duration : 1h 51mn
    Bit rate : 8 000 Kbps
    Width : 1 920 pixels
    Height : 1 080 pixels
    Display aspect ratio : 16:9
    Frame rate mode : Variable
    Frame rate : 23.976 fps
    Minimum frame rate : 23.810 fps
    Maximum frame rate : 24.246 fps
    Color space : YUV
    Chroma subsampling : 4:2:0
    Bit depth : 8 bits
    Scan type : Progressive
    Bits/(Pixel*Frame) : 0.161
    Stream size : 6.23 GiB (86%)
    Source stream size : 6.23 GiB (86%)
    Title : Main Program
    Writing library : x264 core 142 r2479 dd79a61
    Encoding settings : cabac=1 / ref=4 / deblock=1:-2:-2 / analyse=0x3:0x133 / me=umh / subme=10 / psy=1 / psy_rd=1.00:0.15 / mixed_ref=1 / me_range=32 / chroma_me=1 / trellis=2 / 8x8dct=1 / cqm=0 / deadzone=21,11 / fast_pskip=0 / chroma_qp_offset=-3 / threads=36 / lookahead_threads=8 / sliced_threads=0 / nr=0 / decimate=0 / interlaced=0 / bluray_compat=0 / constrained_intra=0 / bframes=16 / b_pyramid=2 / b_adapt=2 / b_bias=0 / direct=3 / weightb=1 / open_gop=0 / weightp=2 / keyint=240 / keyint_min=24 / scenecut=40 / intra_refresh=0 / rc_lookahead=60 / rc=2pass / mbtree=1 / bitrate=8000 / ratetol=1.0 / qcomp=0.70 / qpmin=0 / qpmax=69 / qpstep=4 / cplxblur=20.0 / qblur=0.5 / vbv_maxrate=25000 / vbv_bufsize=25000 / nal_hrd=none / filler=0 / ip_ratio=1.40 / aq=1:1.00
    Language : English
    Encoded date : UTC 2016-07-23 11:32:16
    Tagged date : UTC 2016-07-23 11:32:34
    Color range : Limited
    Color primaries : BT.709
    Transfer characteristics : BT.709
    Matrix coefficients : BT.709
    Video #2
    ID : 11
    Format : JPEG
    Codec ID : jpeg
    Duration : 1h 51mn
    Bit rate mode : Variable
    Bit rate : 937 bps
    Width : 640 pixels
    Height : 360 pixels
    Display aspect ratio : 16:9
    Frame rate mode : Variable
    Frame rate : 0.002 fps
    Minimum frame rate : 0.001 fps
    Maximum frame rate : 0.003 fps
    Color space : YUV
    Chroma subsampling : 4:2:0
    Bit depth : 8 bits
    Compression mode : Lossy
    Bits/(Pixel*Frame) : 2.033
    Stream size : 801 KiB (0%)
    Title : Chapter Images
    Language : English
    Encoded date : UTC 2016-07-23 11:32:42
    Tagged date : UTC 2016-07-23 11:32:43
    Audio #1
    ID : 2
    Format : AAC
    Format/Info : Advanced Audio Codec
    Format profile : LC
    Codec ID : 40
    Duration : 1h 51mn
    Bit rate mode : Variable
    Bit rate : 156 Kbps
    Maximum bit rate : 228 Kbps
    Channel(s) : 2 channels
    Channel positions : Front: L R
    Sampling rate : 48.0 KHz
    Compression mode : Lossy
    Stream size : 125 MiB (2%)
    Title : Russian Stereo
    Language : Russian
    Encoded date : UTC 2016-07-23 11:32:16
    Tagged date : UTC 2016-07-23 11:32:35
    Audio #2
    ID : 3
    Format : AAC
    Format/Info : Advanced Audio Codec
    Format profile : LC
    Codec ID : 40
    Duration : 1h 51mn
    Bit rate mode : Variable
    Bit rate : 157 Kbps
    Maximum bit rate : 253 Kbps
    Channel(s) : 2 channels
    Channel positions : Front: L R
    Sampling rate : 48.0 KHz
    Compression mode : Lossy
    Stream size : 126 MiB (2%)
    Title : English Stereo
    Language : English
    Encoded date : UTC 2016-07-23 11:32:16
    Tagged date : UTC 2016-07-23 11:32:26
    Audio #3
    ID : 4
    Format : AC-3
    Format/Info : Audio Coding 3
    Mode extension : CM (complete main)
    Format settings, Endianness : Big
    Codec ID : ac-3
    Duration : 1h 51mn
    Bit rate mode : Constant
    Bit rate : 384 Kbps
    Channel(s) : 6 channels
    Channel positions : Front: L C R, Side: L R, LFE
    Sampling rate : 48.0 KHz
    Bit depth : 16 bits
    Compression mode : Lossy
    Stream size : 307 MiB (4%)
    Title : Russian DD 5.1
    Language : Russian
    Encoded date : UTC 2016-07-23 11:32:16
    Tagged date : UTC 2016-07-23 11:32:24
    Audio #4
    ID : 5
    Format : AC-3
    Format/Info : Audio Coding 3
    Mode extension : CM (complete main)
    Format settings, Endianness : Big
    Codec ID : ac-3
    Duration : 1h 51mn
    Bit rate mode : Constant
    Bit rate : 640 Kbps
    Channel(s) : 6 channels
    Channel positions : Front: L C R, Side: L R, LFE
    Sampling rate : 48.0 KHz
    Bit depth : 16 bits
    Compression mode : Lossy
    Stream size : 512 MiB (7%)
    Title : English DD 5.1
    Language : English
    Encoded date : UTC 2016-07-23 11:32:16
    Tagged date : UTC 2016-07-23 11:32:24
    Text #1
    ID : 6
    Format : Timed Text
    Muxing mode : sbtl
    Codec ID : tx3g
    Duration : 1h 46mn
    Bit rate mode : Variable
    Bit rate : 2 bps
    Stream size : 1.41 KiB (0%)
    Title : Russian forced
    Language : Russian
    Encoded date : UTC 2016-07-23 11:32:16
    Tagged date : UTC 2016-07-23 11:32:16
    Text #2
    ID : 7
    Format : Timed Text
    Muxing mode : sbtl
    Codec ID : tx3g
    Duration : 1h 24mn
    Bit rate mode : Variable
    Bit rate : 1 bps
    Stream size : 558 Bytes (0%)
    Title : English forced
    Language : English
    Encoded date : UTC 2016-07-23 11:32:16
    Tagged date : UTC 2016-07-23 11:32:16
    Text #3
    ID : 8
    Format : Timed Text
    Muxing mode : sbtl
    Codec ID : tx3g
    Duration : 1h 46mn
    Bit rate mode : Variable
    Bit rate : 112 bps
    Stream size : 86.8 KiB (0%)
    Title : Russian full
    Language : Russian
    Encoded date : UTC 2016-07-23 11:32:16
    Tagged date : UTC 2016-07-23 11:32:16
    Text #4
    ID : 9
    Format : Timed Text
    Muxing mode : sbtl
    Codec ID : tx3g
    Duration : 1h 44mn
    Bit rate mode : Variable
    Bit rate : 79 bps
    Stream size : 60.7 KiB (0%)
    Title : English full
    Language : English
    Encoded date : UTC 2016-07-23 11:32:16
    Tagged date : UTC 2016-07-23 11:32:16
    Menu #1
    00:00:00.000 : 00:00:00.000
    00:07:46.549 : 00:07:46.466
    00:13:47.994 : 00:13:47.910
    00:23:38.917 : 00:23:38.834
    00:30:28.744 : 00:30:28.660
    00:37:27.120 : 00:37:27.036
    00:45:36.859 : 00:45:36.776
    00:55:40.671 : 00:55:40.587
    01:05:02.190 : 01:05:02.107
    01:12:14.539 : 01:12:14.455
    01:17:50.416 : 01:17:50.332
    01:24:56.091 : 01:24:56.008
    01:34:05.056 : 01:34:04.973
    01:39:50.735 : 01:39:50.651
    Menu #2
    ID : 10
    Codec ID : text
    Duration : 1h 51mn
    Language : English
    Encoded date : UTC 2016-07-23 11:32:35
    Tagged date : UTC 2016-07-23 11:32:35
    Bit rate mode : CBR
    00:00:00.000 : 00:00:00.000
    00:07:46.549 : 00:07:46.466
    00:13:47.994 : 00:13:47.910
    00:23:38.917 : 00:23:38.834
    00:30:28.744 : 00:30:28.660
    00:37:27.120 : 00:37:27.036
    00:45:36.859 : 00:45:36.776
    00:55:40.671 : 00:55:40.587
    01:05:02.190 : 01:05:02.107
    01:12:14.539 : 01:12:14.455
    01:17:50.416 : 01:17:50.332
    01:24:56.091 : 01:24:56.008
    01:34:05.056 : 01:34:04.973
    01:39:50.735 : 01:39:50.651

    x264 лог

    x264 [info]: frame I:986   Avg QP:17.72  size:187579
    x264 [info]: frame P:39178 Avg QP:21.08  size: 71001
    x264 [info]: frame B:120676 Avg QP:22.00  size: 30833
    x264 [info]: consecutive B-frames:  3.1%  5.5% 11.4% 18.2% 25.3% 28.1%  5.2%  0.4%  0.6%  0.4%  0.1%  0.1%  0.0%  0.2%  0.1%  0.2%  1.1%
    x264 [info]: mb I  I16..4: 11.1% 82.7%  6.1%
    x264 [info]: mb P  I16..4:  3.1% 22.9%  0.6%  P16..4: 49.0%  9.7%  7.4%  0.1%  0.0%    skip: 7.3%
    x264 [info]: mb B  I16..4:  0.3%  4.4%  0.0%  B16..8: 41.5%  5.9%  1.2%  direct: 7.6%  skip:39.0%  L0:45.9% L1:46.1% BI: 8.0%
    x264 [info]: 8x8 transform intra:88.6% inter:79.2%
    x264 [info]: direct mvs  spatial:99.4% temporal:0.6%
    x264 [info]: coded y,uvDC,uvAC intra: 77.9% 84.8% 63.4% inter: 22.9% 35.7% 11.4%
    x264 [info]: i16 v,h,dc,p: 29% 20% 11% 40%
    x264 [info]: i8 v,h,dc,ddl,ddr,vr,hd,vl,hu: 13%  9% 27%  8%  9%  9%  8%  8%  8%
    x264 [info]: i4 v,h,dc,ddl,ddr,vr,hd,vl,hu: 12% 10%  3%  9% 15% 16% 14% 11% 11%
    x264 [info]: i8c dc,h,v,p: 57% 17% 16% 10%
    x264 [info]: Weighted P-Frames: Y:3.0% UV:1.4%
    x264 [info]: ref P L0: 49.3%  9.0% 28.6% 11.1%  2.0%  0.1%
    x264 [info]: ref B L0: 83.8% 13.3%  2.9%
    x264 [info]: ref B L1: 91.2%  8.8%
    x264 [info]: kb/s:7975.12

    Скриншоты

    -

    Релиз подготовлен для просмотра на Apple TV, iPad, iPhone, iPod Touch.
    Для просмотра данного релиза на компьютере с ОС Windows рекомендуется использовать VLC media player
    Скачать .torrent

    Скачать торрент-файл бесплатно и на максимальной скорости!

    Как скачивать? · Что такое торрент? · Рейтинг и ограничения

    !ВНИМАНИЕ!
    Сайт не распространяет и не хранит электронные версии произведений, а занимается лишь лишь предоставлением доступа к создаваемому пользователями каталогу ссылок на торрент-файлы, которые содержат только списки хеш-сумм, убедительная просьба с жалобами обращаться напрямую к пользователю. Файлы для обмена на трекере предоставлены пользователями сайта, и администрация не несёт ответственности за их содержание. Просьба не заливать файлы, защищенные авторскими правами, а также файлы нелегального содержания!


    _________________
    [Профиль] [ЛС]
    Показать сообщения:    
    Ответить на тему

    Текущее время: Сегодня, в 04:41

    Часовой пояс: GMT + 2



    Вы не можете начинать темы
    Вы не можете отвечать на сообщения
    Вы не можете редактировать свои сообщения
    Вы не можете удалять свои сообщения
    Вы не можете голосовать в опросах
    Вы не можете прикреплять файлы к сообщениям
    Вы не можете скачивать файлы