BitTorrentTracker PerecTracker.org
BitTorrentTracker PerecTracker.org
    
Регистрация  ·  Вход
 
 · 
Забыли пароль?

  • Ёлки 2 (Дмитрий Киселёв, Александр Баранов, Александр Котт, Леван Габриадзе) [2011, Новогодний, мелодрама, лирическая комедия, HDRip]

    Ответить на тему
     
    Автор Сообщение

    Flirldrerve

    Создавать темы 23-Июл-2016 04:13

           

    [Цитировать]

    Ёлки 2
    Жанр: Новогодний, мелодрама, лирическая комедия
    Год выпуска: 2011
    Продолжительность: 01:40:19
    Режиссёр: Дмитрий Киселёв, Александр Баранов, Александр Котт, Леван Габриадзе
    В ролях: Иван Ургант, Сергей Светлаков, Ирина Алфёрова, Алексей Петренко, Лера Стреляева, Пётр Фёдоров, Александр Головин, Александр Домогаров (младший), Ирина Архипова (II), Елена Плаксина, Алёна Константинова, Изнаур Орцуев, Владимир Меньшов, Дмитрий Гогу, Сергей Безруков, Александр Робак, Гоша Куценко, Сергей Фролов, Виктор Вержбицкий, Анна Чиповская, Павел Баршак, Вера Брежнева, Никита Пресняков, Евгения Абрамова (II), Игорь Поселенов, Галина Коньшина, Сергей Стёпин, Инга Оболдина, Галина Стаханова, Карэн Бадалов, Елизавета Степанова, Роман Мадянов, Санжар Мадиев, Анна Хилькевич, Алексей Дмитриев, Сергей Ланбамин, Адылбек Атыхаев, Арно ле Гланик, Александр Наумов, Софья Смольникова, Надежда Иванко, Константин Мережников, Екатерина Лапина, Сагызбай Карабалин, Раиса Конюхова, Вадим Голишников, Лариса Волкова, Григорий Обыденов, Стелла Ндомби, Ольга Аксёнова, Тамара Спиричева, и др.
    Описание: Продолжение новогоднего киноальманаха "Ёлки".
    Люди ещё верят в сказки, особенно в новогоднюю ночь. Главные герои комедии уверены, что если Новый год встретить в нескольких городах, то чудо обязательно произойдёт...

    Качество видео: HDRip
    Формат видео: AVI
    Видео: XviD 50 MPEG-4, 624x352 (16:9) 23.976 fps, ~897 kbps avg, 0.170 bit/pixel
    Аудио: MP-3 Stereo, CBR 128 kbps 2 ch, 48.0 KHz

    MediaInfo

    ОбщееПолное имя : P:\Yolki_2_2011_HDRip_[perectracker.org].aviФормат : AVIФормат/Информация : Audio Video InterleaveРазмер файла : 742 МбайтПродолжительность : 1 ч. 40 м.Общий поток : 1034 Кбит/секНазвание фильма : Yolki_2_2011_HDRip_[perectracker.org]Режиссёр : NetworkЖанр : Новогодний, мелодрамаПрограмма кодирования : VirtualDubModRus 1.5.10.2 (build 2542/release)Формат оригинала/Имя : Наше киноПравообладатель : NetworkПримечание : 22 июля 2016 г.
    ВидеоИдентификатор : 0Формат : MPEG-4 VisualПрофиль формата : Advanced Simple@L5Параметр BVOP формата : 1Параметр QPel формата : НетПараметр GMC формата : Без точки переходаПараметр матрицы формата : ВыборочнаяИдентификатор кодека : DX50Идентификатор кодека/Подсказка : DivX 5Продолжительность : 1 ч. 40 м.Битрейт : 897 Кбит/секШирина : 624 пикселяВысота : 352 пикселяСоотношение сторон : 16:9Частота кадров : 23,976 кадра/секЦветовое пространство : YUVСубдискретизация насыщенности : 4:2:0Битовая глубина : 8 битТип развёртки : ПрогрессивнаяМетод сжатия : С потерямиБит/(Пиксели*Кадры) : 0.170Размер потока : 644 Мбайт (87%)Библиотека кодирования : XviD 1.2.1 (UTC 2008-12-04)
    АудиоИдентификатор : 1Формат : MPEG AudioВерсия формата : Version 1Профиль формата : Layer 3Идентификатор кодека : 55Идентификатор кодека/Подсказка : MP3Продолжительность : 1 ч. 40 м.Вид битрейта : ПостоянныйБитрейт : 128 Кбит/секКаналы : 2 каналаЧастота : 48,0 КГцМетод сжатия : С потерямиРазмер потока : 91,8 Мбайт (12%)Выравнивание : Соединение по промежуткамПродолжительность промежутка : 42 мс. (1,00 видеокадр)Время предзагрузки промежутка : 504 мс.Библиотека кодирования : LAME3.99Настройки программы : -m s -V 4 -q 0 -lowpass 17 -b 128

    Скриншот c названием фильма

    Скриншоты

    Время раздачи - по возможности.
    Скачать .torrent

    Скачать торрент-файл бесплатно и на максимальной скорости!

    Как скачивать? · Что такое торрент? · Рейтинг и ограничения

    !ВНИМАНИЕ!
    Сайт не распространяет и не хранит электронные версии произведений, а занимается лишь лишь предоставлением доступа к создаваемому пользователями каталогу ссылок на торрент-файлы, которые содержат только списки хеш-сумм, убедительная просьба с жалобами обращаться напрямую к пользователю. Файлы для обмена на трекере предоставлены пользователями сайта, и администрация не несёт ответственности за их содержание. Просьба не заливать файлы, защищенные авторскими правами, а также файлы нелегального содержания!


    _________________
    [Профиль] [ЛС]
    Показать сообщения:    
    Ответить на тему

    Текущее время: Сегодня, в 07:12

    Часовой пояс: GMT + 2



    Вы не можете начинать темы
    Вы не можете отвечать на сообщения
    Вы не можете редактировать свои сообщения
    Вы не можете удалять свои сообщения
    Вы не можете голосовать в опросах
    Вы не можете прикреплять файлы к сообщениям
    Вы не можете скачивать файлы