Register  ·  Log in
Forgot password?

  • Месть от кутюр / Портниха / The Dressmaker (Джослин Мурхаус / Jocelyn Moorhouse) [2015, Австралия, драма, BDRip] MVO (FocusStudio) + Orignal + Subs (rus,eng)

    Reply to topic
    Author Message


    Post 22-Jul-2016 21:40



    Месть от кутюр / Портниха / The Dressmaker
    Слоган: «Фильм о любви, мести и высокой моде»
    Страна: Австралия
    Жанр: драма
    Год выпуска: 2015
    Продолжительность: 01:58:52
    Перевод: Профессиональный (многоголосый закадровый) - ( FocusStudio)
    Cубтитры: Русские, английские (полные)
    Оригинальная аудиодорожка: Английский
    Режиссер: Джослин Мурхаус / Jocelyn Moorhouse
    В ролях: Кейт Уинслет, Лиам Хемсворт, Сара Снук, Хьюго Уивинг, Кэролайн Гудолл, Джуди Дэвис, Керри Фокс, Ребекка Гибни, Шэйн Джейкобсон, Хейли Магнус
    Описание: Гламурная женщина возвращается в родной город, откуда уехала еще ребенком после обвинения в убийстве. Жители городка сначала не принимают ее, но постепенно она завоевывает расположение местных дам благодаря остроумию и умению кроить безупречные наряды.
    Качество видео: BDRip
    Исходник: [The.Dressmaker.2015.BDRemux.1080p.FocusStudio]
    Формат видео: AVI
    Видео: 720x304 (2.37:1), 23.976 fps, XviD build 65 ~2134 kbps avg, 0.41 bit/pixel
    Аудио RUS: 48 kHz, AC3 Dolby Digital, 3/2 (L,C,R,l,r) + LFE ch, ~448 kbps
    Аудио ENG: 48 kHz, AC3 Dolby Digital, 3/2 (L,C,R,l,r) + LFE ch, ~448 kbps - отдельным файлом
    Формат субтитров: softsub (SRT)

    Rip by Ториял


    Format : AVI
    Format/Info : Audio Video Interleave
    Format profile : OpenDML
    File size : 2.15 GiB
    Duration : 1h 58mn
    Overall bit rate : 2 590 Kbps
    Writing application : VirtualDubMod | || (build 2550/release)
    Writing library : VirtualDubMod build 2550/release
    ID : 0
    Format : MPEG-4 Visual
    Format profile : Advanced Simple@L5
    Format settings, BVOP : 1
    Format settings, QPel : No
    Format settings, GMC : No warppoints
    Format settings, Matrix : Custom
    Codec ID : XVID
    Codec ID/Hint : XviD
    Duration : 1h 58mn
    Bit rate : 2 130 Kbps
    Width : 720 pixels
    Height : 304 pixels
    Display aspect ratio : 2.35:1
    Frame rate : 23.976 (23976/1000) fps
    Color space : YUV
    Chroma subsampling : 4:2:0
    Bit depth : 8 bits
    Scan type : Progressive
    Compression mode : Lossy
    Bits/(Pixel*Frame) : 0.406
    Stream size : 1.77 GiB (82%)
    Writing library : XviD 65
    ID : 1
    Format : AC-3
    Format/Info : Audio Coding 3
    Mode extension : CM (complete main)
    Format settings, Endianness : Big
    Codec ID : 2000
    Duration : 1h 58mn
    Bit rate mode : Constant
    Bit rate : 448 Kbps
    Channel(s) : 6 channels
    Channel positions : Front: L C R, Side: L R, LFE
    Sampling rate : 48.0 KHz
    Frame rate : 31.250 fps (1536 spf)
    Compression mode : Lossy
    Stream size : 381 MiB (17%)
    Alignment : Split accross interleaves
    Interleave, duration : 42 ms (1.00 video frame)
    Interleave, preload duratio : 500 ms


    Download .torrent

    Download free and at maximum speed!

    How to Download? · What is a torrent? · Ratings and Limitations

    The site does not extend and does not store electronic(digital) versions of products, and only gives access to a reference catalogue created by users on torrent-files which contain only lists of the hash-sums, the earnest entreaty, with complaints(abuse) to access directly to the user. Files for an exchange on tracker are given by users of a site, and the administration does not bear the responsibility for their maintenance. The request to not fill in the files protected by copyrights, and also files of the illegal maintenance!

    [Profile] [PM]
    Display posts from previous:    
    Reply to topic

    The time now is: Today 22:22

    All times are GMT + 3 Hours

    You cannot post new topics in this forum
    You cannot reply to topics in this forum
    You cannot edit your posts in this forum
    You cannot delete your posts in this forum
    You cannot vote in polls in this forum
    You cannot attach files in this forum
    You cannot download files in this forum