BitTorrentTracker PerecTracker.org
BitTorrentTracker PerecTracker.org
    
Регистрация  ·  Вход
 
 · 
Забыли пароль?

  • Преступник / Criminal (Ариэль Вромен / Ariel Vromen) [2016, США, Фантастика, боевик, триллер, драма, криминал, детектив, BDRip, HD (720p)] DUB + Original + sub (eng)

    Ответить на тему
     
    Автор Сообщение

    rechyn

    Создавать темы 22-Июл-2016 16:28

           

    [Цитировать]

    Преступник / Criminal
    «The CIA's last hope is in the mind of a criminal»
    6.237 / 10 6.30 / 10
    -Год выпуска: 2016
    Страна: США
    Жанр: Фантастика, боевик, триллер, драма, криминал, детектив
    Продолжительность: 01:53:34
    Перевод: Дублированный (iTunes)
    Оригинальная аудиодорожка: Есть
    Cубтитры: Английские
    Режиссёр: Ариэль Вромен
    Сценарий: Дуглас Кук, Дэвид Уайсберг
    Продюсер: Крис Бендер, Криста Кэмпбелл, Боаз Дэвидсон
    Оператор: Дана Гонсалес
    Композитор: Кит Пауэр, Брайан Тайлер
    Художник: Джон Хенсон, Грант Армстронг, Ханна Моусли
    Монтаж: Дэнни Рафик
    В ролях: Кевин Костнер, Гари Олдман, Томми Ли Джонс, Райан Рейнольдс, Элис Ив, Галь Гадот, Хорди Молья, Майкл Питт, Амори Ноласко, Антье Трауэ
    Бюджет: $31 500 000
    Сборы в США: $14 708 696
    Сборы в России: $746 644
    Мировая премьера: 5 апреля 2016
    Премьера (РФ): 14 апреля 2016, «MEGOGO Distribution»
    Описание: В последней отчаянной попытке остановить катастрофу мирового масштаба генетики осуществляют невероятную операцию по вживлению воспоминаний и умений погибшего оперативника ЦРУ в тело опасного заключенного с надеждой, что тот доведет до конца прерванную миссию агента.-Качество исходника: BDRemux (HDCLub)
    Качество: BDRip
    Тип: HD (720p)
    Контейнер: M4V
    Видео: H.264, 1280x544, 2.35:1, 3 500 Kbps, 23.976 fps
    Аудио 1: Русский/Дублированный (iTunes), AAC / 2.0 / 157 Kbps / 48.0 KHz
    Аудио 2: Английский/Оригинальная дорожка , AAC / 2.0 / 157 Kbps / 48.0 KHz
    Аудио 3: Русский/Дублированный (iTunes), AC-3 / 5.1 / 384 Kbps / 48.0 KHz
    Аудио 4: Английский/Оригинальная дорожка , AC-3 / 5.1 / 640 Kbps / 48.0 KHz
    Субтитры: Английские полные
    -

    iTunes Meta Tags

    Sort Name: Преступник
    XID: Apple:vendor_id:2016-775517
    contentID: 1131289407
    Copyright: © 2016 «MEGOGO Distribution»
    Screenwriters: Дуглас Кук, Дэвид Уайсберг
    Producers: Крис Бендер, Криста Кэмпбелл, Боаз Дэвидсон
    Director: Ариэль Вромен
    Cast: Кевин Костнер, Гари Олдман, Томми Ли Джонс, Райан Рейнольдс, Элис Ив, Галь Гадот, Хорди Молья, Майкл Питт, Амори Ноласко, Антье Трауэ
    Studio: Lionsgate
    Rating: 136
    Long Description: В последней отчаянной попытке остановить катастрофу мирового масштаба генетики осуществляют невероятную операцию по вживлению воспоминаний и умений погибшего оперативника ЦРУ в тело опасного заключенного с надеждой, что тот доведет до конца прерванную миссию агента.
    Description: В последней отчаянной попытке остановить катастрофу мирового масштаба генетики осуществляют невероятную операцию по вживлению воспоминаний и умений погибшего оперативника ЦРУ в тело опасного заключенного с надеждой, что тот доведет до конца прерванную миссию агента.
    Release Date: 2016-04-05T08:00:00Z
    Genre: Боевики и приключения
    Artist: Ariel Vromen
    Name: Преступник

    MediaInfo

    General
    Complete name : /Users/imac/HandBrake/Criminal (720p HD).m4v
    Format : MPEG-4
    Codec ID : M4V
    File size : 3.84 GiB
    Duration : 1h 53mn
    Overall bit rate mode : Variable
    Overall bit rate : 4 839 Kbps
    Movie name : Преступник
    Performer : Ariel Vromen
    Director : Ариэль Вромен
    Actor : Кевин Костнер / Гари Олдман / Томми Ли Джонс / Райан Рейнольдс / Элис Ив / Галь Гадот / Хорди Молья / Майкл Питт / Амори Ноласко / Антье Трауэ
    Screenplay by : Дуглас Кук / Дэвид Уайсберг
    Producer : Крис Бендер / Криста Кэмпбелл / Боаз Дэвидсон
    Production studio : Lionsgate
    Genre : Боевики и приключения
    ContentType : Short Film
    Description : В последней отчаянной попытке остановить катастрофу мирового масштаба генетики осуществляют невероятную операцию по вживлению воспоминаний и умений погибшего оперативника ЦРУ в тело опасного заключенного с надеждой, что тот доведет до конца прерванную миссию агента.
    Recorded date : UTC 2016-04-05 08:00:00
    Encoded date : UTC 2016-07-22 09:03:04
    Tagged date : UTC 2016-07-22 09:12:05
    Copyright : © 2016 «MEGOGO Distribution»
    Cover : Yes
    Rating : None
    Title/Sort : Преступник
    LongDescription : В последней отчаянной попытке остановить катастрофу мирового масштаба генетики осуществляют невероятную операцию по вживлению воспоминаний и умений погибшего оперативника ЦРУ в тело опасного заключенного с надеждой, что тот доведет до конца прерванную миссию агента.
    HDVideo : Yes
    AppleStoreCatalogID : 1131289407
    Vendor : Apple:vendor_id:2016-775517
    ContentRating : ru-movie|18+|400|
    Video #1
    ID : 1
    Format : AVC
    Format/Info : Advanced Video Codec
    Format profile : High@L3.1
    Format settings, CABAC : No
    Format settings, ReFrames : 3 frames
    Codec ID : avc1
    Codec ID/Info : Advanced Video Coding
    Duration : 1h 53mn
    Source duration : 1h 53mn
    Bit rate : 3 500 Kbps
    Width : 1 280 pixels
    Height : 544 pixels
    Display aspect ratio : 2.35:1
    Frame rate mode : Variable
    Frame rate : 23.976 fps
    Minimum frame rate : 23.974 fps
    Maximum frame rate : 23.981 fps
    Color space : YUV
    Chroma subsampling : 4:2:0
    Bit depth : 8 bits
    Scan type : Progressive
    Bits/(Pixel*Frame) : 0.210
    Stream size : 2.77 GiB (72%)
    Source stream size : 2.77 GiB (72%)
    Title : Main Program
    Writing library : x264 core 142 r2479 dd79a61
    Encoding settings : cabac=0 / ref=3 / deblock=1:-3:-3 / analyse=0x3:0x113 / me=umh / subme=9 / psy=1 / psy_rd=1.00:0.15 / mixed_ref=1 / me_range=32 / chroma_me=1 / trellis=0 / 8x8dct=1 / cqm=0 / deadzone=21,11 / fast_pskip=0 / chroma_qp_offset=-2 / threads=36 / lookahead_threads=3 / sliced_threads=0 / nr=0 / decimate=0 / interlaced=0 / bluray_compat=0 / constrained_intra=0 / bframes=3 / b_pyramid=0 / b_adapt=2 / b_bias=0 / direct=1 / weightb=0 / open_gop=0 / weightp=0 / keyint=240 / keyint_min=24 / scenecut=40 / intra_refresh=0 / rc_lookahead=40 / rc=2pass / mbtree=1 / bitrate=3500 / ratetol=1.0 / qcomp=0.65 / qpmin=0 / qpmax=69 / qpstep=4 / cplxblur=20.0 / qblur=0.5 / vbv_maxrate=9500 / vbv_bufsize=9500 / nal_hrd=none / filler=0 / ip_ratio=1.40 / aq=1:1.10
    Language : English
    Encoded date : UTC 2016-07-22 09:03:04
    Tagged date : UTC 2016-07-22 09:03:10
    Color range : Limited
    Color primaries : BT.709
    Transfer characteristics : BT.709
    Matrix coefficients : BT.709
    Video #2
    ID : 8
    Format : JPEG
    Codec ID : jpeg
    Duration : 1h 53mn
    Bit rate mode : Variable
    Bit rate : 610 bps
    Width : 640 pixels
    Height : 272 pixels
    Display aspect ratio : 2.35:1
    Frame rate mode : Variable
    Frame rate : 0.002 fps
    Minimum frame rate : 0.001 fps
    Maximum frame rate : 0.005 fps
    Color space : YUV
    Chroma subsampling : 4:2:0
    Bit depth : 8 bits
    Compression mode : Lossy
    Bits/(Pixel*Frame) : 1.752
    Stream size : 596 KiB (0%)
    Title : Chapter Images
    Language : English
    Encoded date : UTC 2016-07-22 09:03:49
    Tagged date : UTC 2016-07-22 09:03:49
    Audio #1
    ID : 2
    Format : AAC
    Format/Info : Advanced Audio Codec
    Format profile : LC
    Codec ID : 40
    Duration : 1h 53mn
    Bit rate mode : Variable
    Bit rate : 157 Kbps
    Maximum bit rate : 251 Kbps
    Channel(s) : 2 channels
    Channel positions : Front: L R
    Sampling rate : 48.0 KHz
    Compression mode : Lossy
    Stream size : 127 MiB (3%)
    Title : Russian Stereo
    Language : Russian
    Encoded date : UTC 2016-07-22 09:03:04
    Tagged date : UTC 2016-07-22 09:03:45
    Audio #2
    ID : 3
    Format : AAC
    Format/Info : Advanced Audio Codec
    Format profile : LC
    Codec ID : 40
    Duration : 1h 53mn
    Bit rate mode : Variable
    Bit rate : 157 Kbps
    Maximum bit rate : 247 Kbps
    Channel(s) : 2 channels
    Channel positions : Front: L R
    Sampling rate : 48.0 KHz
    Compression mode : Lossy
    Stream size : 127 MiB (3%)
    Title : English Stereo
    Language : English
    Encoded date : UTC 2016-07-22 09:03:04
    Tagged date : UTC 2016-07-22 09:03:45
    Audio #3
    ID : 4
    Format : AC-3
    Format/Info : Audio Coding 3
    Mode extension : CM (complete main)
    Format settings, Endianness : Big
    Codec ID : ac-3
    Duration : 1h 53mn
    Bit rate mode : Constant
    Bit rate : 384 Kbps
    Channel(s) : 6 channels
    Channel positions : Front: L C R, Side: L R, LFE
    Sampling rate : 48.0 KHz
    Bit depth : 16 bits
    Compression mode : Lossy
    Stream size : 312 MiB (8%)
    Title : Russian DD 5.1
    Language : Russian
    Encoded date : UTC 2016-07-22 09:03:04
    Tagged date : UTC 2016-07-22 09:03:45
    Audio #4
    ID : 5
    Format : AC-3
    Format/Info : Audio Coding 3
    Mode extension : CM (complete main)
    Format settings, Endianness : Big
    Codec ID : ac-3
    Duration : 1h 53mn
    Bit rate mode : Constant
    Bit rate : 640 Kbps
    Channel(s) : 6 channels
    Channel positions : Front: L C R, Side: L R, LFE
    Sampling rate : 48.0 KHz
    Bit depth : 16 bits
    Compression mode : Lossy
    Stream size : 520 MiB (13%)
    Title : English DD 5.1
    Language : English
    Encoded date : UTC 2016-07-22 09:03:04
    Tagged date : UTC 2016-07-22 09:03:45
    Text
    ID : 6
    Format : Timed Text
    Muxing mode : sbtl
    Codec ID : tx3g
    Duration : 1h 44mn
    Bit rate mode : Variable
    Bit rate : 50 bps
    Stream size : 38.6 KiB (0%)
    Title : English full
    Language : English
    Encoded date : UTC 2016-07-22 09:03:04
    Tagged date : UTC 2016-07-22 09:03:43
    Menu #1
    00:00:00.000 : Chapter 1
    00:10:41.349 : Chapter 2
    00:15:32.348 : Chapter 3
    00:23:44.673 : Chapter 4
    00:30:56.646 : Chapter 5
    00:36:01.451 : Chapter 6
    00:45:35.775 : Chapter 7
    00:48:48.592 : Chapter 8
    00:54:50.829 : Chapter 9
    01:01:46.328 : Chapter 10
    01:08:32.692 : Chapter 11
    01:16:11.192 : Chapter 12
    01:22:20.227 : Chapter 13
    01:29:52.095 : Chapter 14
    01:36:45.717 : Chapter 15
    01:42:08.581 : Chapter 16
    Menu #2
    ID : 7
    Codec ID : text
    Duration : 1h 53mn
    Language : English
    Encoded date : UTC 2016-07-22 09:03:45
    Tagged date : UTC 2016-07-22 09:03:45
    00:00:00.000 : Chapter 1
    00:10:41.349 : Chapter 2
    00:15:32.348 : Chapter 3
    00:23:44.673 : Chapter 4
    00:30:56.646 : Chapter 5
    00:36:01.451 : Chapter 6
    00:45:35.775 : Chapter 7
    00:48:48.592 : Chapter 8
    00:54:50.829 : Chapter 9
    01:01:46.328 : Chapter 10
    01:08:32.692 : Chapter 11
    01:16:11.192 : Chapter 12
    01:22:20.227 : Chapter 13
    01:29:52.095 : Chapter 14
    01:36:45.717 : Chapter 15
    01:42:08.581 : Chapter 16
    Bit rate mode : VBR

    x264 лог

    x264 [info]: frame I:2032  Avg QP:14.73  size: 93759
    x264 [info]: frame P:61491 Avg QP:16.40  size: 30479
    x264 [info]: frame B:99870 Avg QP:17.72  size:  9110
    x264 [info]: consecutive B-frames:  6.4% 25.8% 31.3% 36.5%
    x264 [info]: mb I  I16..4: 10.1% 61.5% 28.4%
    x264 [info]: mb P  I16..4:  3.4%  6.8%  2.7%  P16..4: 44.9% 24.9% 10.1%  0.0%  0.0%    skip: 7.1%
    x264 [info]: mb B  I16..4:  0.2%  0.6%  0.3%  B16..8: 46.5% 11.9%  1.6%  direct: 4.3%  skip:34.5%  L0:41.6% L1:52.1% BI: 6.3%
    x264 [info]: 8x8 transform intra:54.9% inter:46.0%
    x264 [info]: coded y,uvDC,uvAC intra: 74.9% 77.8% 58.2% inter: 24.7% 22.6% 12.8%
    x264 [info]: i16 v,h,dc,p: 59% 11%  5% 25%
    x264 [info]: i8 v,h,dc,ddl,ddr,vr,hd,vl,hu:  9%  8%  6% 11% 15% 14% 14% 11% 11%
    x264 [info]: i4 v,h,dc,ddl,ddr,vr,hd,vl,hu:  9%  9%  4% 12% 17% 15% 14% 11%  9%
    x264 [info]: i8c dc,h,v,p: 54% 17% 18% 11%
    x264 [info]: ref P L0: 73.9% 16.2%  9.9%
    x264 [info]: ref B L0: 80.8% 19.2%
    x264 [info]: kb/s:3491.77

    Скриншоты

    -

    Релиз подготовлен для просмотра на Apple TV, iPad, iPhone, iPod Touch.
    Для просмотра данного релиза на компьютере с ОС Windows рекомендуется использовать VLC media player
    Скачать .torrent

    Скачать торрент-файл бесплатно и на максимальной скорости!

    Как скачивать? · Что такое торрент? · Рейтинг и ограничения

    !ВНИМАНИЕ!
    Сайт не распространяет и не хранит электронные версии произведений, а занимается лишь лишь предоставлением доступа к создаваемому пользователями каталогу ссылок на торрент-файлы, которые содержат только списки хеш-сумм, убедительная просьба с жалобами обращаться напрямую к пользователю. Файлы для обмена на трекере предоставлены пользователями сайта, и администрация не несёт ответственности за их содержание. Просьба не заливать файлы, защищенные авторскими правами, а также файлы нелегального содержания!


    _________________
    [Профиль] [ЛС]
    Показать сообщения:    
    Ответить на тему

    Текущее время: Сегодня, в 13:54

    Часовой пояс: GMT + 2



    Вы не можете начинать темы
    Вы не можете отвечать на сообщения
    Вы не можете редактировать свои сообщения
    Вы не можете удалять свои сообщения
    Вы не можете голосовать в опросах
    Вы не можете прикреплять файлы к сообщениям
    Вы не можете скачивать файлы