BitTorrentTracker PerecTracker.org
BitTorrentTracker PerecTracker.org
    
Регистрация  ·  Вход
 
 · 
Забыли пароль?

  • Колония Дигнидад / Colonia (Флориан Галленбергер / Florian Gallenberger) [2015, Германия, Люксембург, Франция, триллер, драма, мелодрама, BDRip-AVC] Dub + Sub (eng)

    Ответить на тему
     
    Автор Сообщение

    Light

    Создавать темы 22-Июл-2016 16:28

           

    [Цитировать]

    Колония Дигнидад
    Colonia
    «Escape is the only option»

    Страна: Германия, Люксембург, Франция
    Жанр: триллер, драма, мелодрама, история
    Год выпуска: 2015
    Продолжительность: 01:49:58
    Перевод: Профессиональный (полное дублирование) [iTunes]
    Cубтитры: английские (полные, SDH)
    Оригинальная аудиодорожка: нет
    Режиссер: Флориан Галленбергер / Florian Gallenberger
    В ролях: Эмма Уотсон, Даниэль Брюль, Микаэл Нюквист, Риченда Кэри, Вики Крипс, Джинн Вернер, Джулиан Овенден, Август Цирнер, Мартин Вуттке, Николас Барсофф, Стив Карьер, Штефан Мерки
    Описание:
    Немецкий журналист Даниэль похищен в Чили тайной полицией и после немыслимых пыток отправлен в колонию «Дигнидад» - огромное поселение, выдающее себя за благотворительную коммуну, а на самом деле гнездо нацистов - беглецов из Третьего рейха. Колонию возглавляет бывший офицер вермахта, бесноватый проповедник Пауль Шефер, внушающий пастве пользу умерщвления плоти и бесплатного труда от заката до рассвета. В «Дигнидад» легко попасть, но обратной дороги нет. Здесь Даниэлю предстоит превратиться в раба и «материал» для бесчеловечных экспериментов.
    Но подвиги во имя любви совершают не только мужчины. Девушка Даниэля, отважная стюардесса Лена, решает спасти его. В одиночку. Ради любимого она готова на всё и даже больше. Добровольно, под видом послушницы, Лена отправляется в это страшное место...


    Автор рипа: stalkerok
    Сэмпл
    Качество видео: BDRip-AVC [HDCLUB / Blu-ray Remux / 1080p]
    Формат видео: MKV
    Видео: 1448 Кбит/сек, 948x396 (2.40:1), 23,976 кадр/сек, AVC
    Аудио: русский, 384 Кбит/сек, 48 КГц, 16 бит, 5.1, AC3
    Навигация по главам: есть

    MediaInfo

    Общее
    Уникальный идентификатор : 254308032854912174475448626313386317038 (0xBF51F2100BE1BD6383CDE401B594D4EE)
    Полное имя : M:\2Rips\Colonia 2015\Colonia.2015.BDRip-AVC.Dub.1.45Gb.stalkerok.new-team.mkv
    Формат : Matroska
    Версия формата : Version 4 / Version 2
    Размер файла : 1,41 Гбайт
    Продолжительность : 1 ч. 49 м.
    Общий поток : 1834 Кбит/сек
    Название фильма : Colonia (2015) (New-Team) (Rip by stalkerok)
    Дата кодирования : UTC 2016-06-09 15:19:37
    Программа кодирования : mkvmerge v8.6.1 ('Flying') 64bit
    Библиотека кодирования : libebml v1.3.3 + libmatroska v1.4.4
    Видео
    Идентификатор : 1
    Формат : AVC
    Формат/Информация : Advanced Video Codec
    Профиль формата : High@L4.1
    Параметр CABAC формата : Да
    Параметр ReFrames формата : 14 кадров
    Идентификатор кодека : V_MPEG4/ISO/AVC
    Продолжительность : 1 ч. 49 м.
    Битрейт : 1448 Кбит/сек
    Ширина : 948 пикселей
    Высота : 396 пикселей
    Соотношение сторон : 2,40:1
    Режим частоты кадров : Постоянный
    Частота кадров : 23,976 (24000/1001) кадра/сек
    Цветовое пространство : YUV
    Субдискретизация насыщенности : 4:2:0
    Битовая глубина : 8 бит
    Тип развёртки : Прогрессивная
    Бит/(Пиксели*Кадры) : 0.161
    Размер потока : 1,11 Гбайт (79%)
    Заголовок : Colonia (2015) (New-Team) (Rip by stalkerok)
    Библиотека кодирования : x264 core 148 r2665kMod a01e339
    Настройки программы : cabac=1 / ref=14 / deblock=1:-3:-2 / analyse=0x3:0x133 / me=umh / subme=10 / psy=1 / fade_compensate=0.00 / psy_rd=1.00:0.00 / mixed_ref=1 / me_range=32 / chroma_me=1 / trellis=2 / 8x8dct=1 / cqm=0 / deadzone=21,11 / fast_pskip=0 / chroma_qp_offset=-2 / threads=12 / lookahead_threads=3 / sliced_threads=0 / nr=0 / decimate=0 / interlaced=0 / bluray_compat=0 / constrained_intra=0 / fgo=0 / bframes=14 / b_pyramid=2 / b_adapt=2 / b_bias=0 / direct=3 / weightb=1 / open_gop=0 / weightp=2 / keyint=240 / keyint_min=23 / scenecut=40 / intra_refresh=0 / rc_lookahead=60 / rc=2pass / mbtree=0 / bitrate=1448 / ratetol=1.0 / qcomp=0.65 / qpmin=0 / qpmax=69 / qpstep=4 / cplxblur=20.0 / qblur=0.5 / vbv_maxrate=50000 / vbv_bufsize=62500 / nal_hrd=none / filler=0 / ip_ratio=1.40 / pb_ratio=1.30 / aq=1:0.90
    Default : Да
    Forced : Нет
    Аудио
    Идентификатор : 2
    Формат : AC-3
    Формат/Информация : Audio Coding 3
    Расширение режима : CM (complete main)
    Параметр Endianness формата : Big
    Идентификатор кодека : A_AC3
    Продолжительность : 1 ч. 49 м.
    Вид битрейта : Постоянный
    Битрейт : 384 Кбит/сек
    Каналы : 6 каналов
    Расположение каналов : Front: L C R, Side: L R, LFE
    Частота : 48,0 КГц
    Частота кадров : 31,250 кадров/сек (1536 spf)
    Метод сжатия : С потерями
    Размер потока : 302 Мбайт (21%)
    Язык : Russian
    Default : Да
    Forced : Нет
    Текст #1
    Идентификатор : 3
    Формат : UTF-8
    Идентификатор кодека : S_TEXT/UTF8
    Идентификатор кодека/Информация : UTF-8 Plain Text
    Продолжительность : 1 ч. 43 м.
    Битрейт : 35 бит/сек
    Count of elements : 1141
    Размер потока : 26,9 Кбайт (0%)
    Язык : English
    Default : Нет
    Forced : Нет
    Текст #2
    Идентификатор : 4
    Формат : UTF-8
    Идентификатор кодека : S_TEXT/UTF8
    Идентификатор кодека/Информация : UTF-8 Plain Text
    Продолжительность : 1 ч. 45 м.
    Битрейт : 40 бит/сек
    Count of elements : 1485
    Размер потока : 31,2 Кбайт (0%)
    Заголовок : SDH
    Язык : English
    Default : Нет
    Forced : Нет
    Меню
    00:00:00.000 : en:Chapter 1
    00:09:30.986 : en:Chapter 2
    00:19:25.204 : en:Chapter 3
    00:25:26.691 : en:Chapter 4
    00:33:36.346 : en:Chapter 5
    00:43:41.994 : en:Chapter 6
    00:47:41.400 : en:Chapter 7
    01:06:31.112 : en:Chapter 8
    01:15:26.395 : en:Chapter 9
    01:25:35.796 : en:Chapter 10
    01:34:36.962 : en:Chapter 11
    01:46:10.322 : en:Chapter 12

    Скриншоты

    Скачать .torrent

    Скачать торрент-файл бесплатно и на максимальной скорости!

    Как скачивать? · Что такое торрент? · Рейтинг и ограничения

    !ВНИМАНИЕ!
    Сайт не распространяет и не хранит электронные версии произведений, а занимается лишь лишь предоставлением доступа к создаваемому пользователями каталогу ссылок на торрент-файлы, которые содержат только списки хеш-сумм, убедительная просьба с жалобами обращаться напрямую к пользователю. Файлы для обмена на трекере предоставлены пользователями сайта, и администрация не несёт ответственности за их содержание. Просьба не заливать файлы, защищенные авторскими правами, а также файлы нелегального содержания!


    _________________
    [Профиль] [ЛС]
    Показать сообщения:    
    Ответить на тему

    Текущее время: Сегодня, в 16:07

    Часовой пояс: GMT + 2



    Вы не можете начинать темы
    Вы не можете отвечать на сообщения
    Вы не можете редактировать свои сообщения
    Вы не можете удалять свои сообщения
    Вы не можете голосовать в опросах
    Вы не можете прикреплять файлы к сообщениям
    Вы не можете скачивать файлы