BitTorrentTracker PerecTracker.org
BitTorrentTracker PerecTracker.org
    
Регистрация  ·  Вход
 
 · 
Забыли пароль?

  • Ведьма / The VVitch: A New-England Folktale (Роберт Эггерс / Robert Eggers) [2015, США, Великобритания, Канада, Бразилия, Мистика, Ужасы, HDRip] Dub

    Ответить на тему
     
    Автор Сообщение

    Light

    Создавать темы 22-Июл-2016 16:28

           

    [Цитировать]

    Ведьма / The VVitch: A New-England Folktale
    Страна: США, Великобритания, Канада, Бразилия
    Жанр: Мистика, Ужасы
    Год выпуска: 2015
    Продолжительность: 01:32:26
    Перевод: Профессиональный (дублированный) BD CEE
    Cубтитры: нет
    Режиссер: Роберт Эггерс / Robert Eggers
    В ролях: Аня Тейлор-Джой (Thomasin), Ралф Айнесон (William), Кейт Дики (Katherine), Харви Скримшо (Caleb), Элли Грэйнджер (Mercy), Лукас Доусон (Jonas), Джулиан Ричингс (Governor), Батшеба Гарнетт (The Witch), Сара Стефенс (The Witch, Young), Вахаб Каудхри (Black Phillip, озвучка), Акстюн Анри Дюбэ (Samuel), Атан Конрад Дюбэ (Samuel)
    Описание: Семья колонистов покидает плантацию, чтобы жить на уединенной ферме рядом с лесом в Новой Англии. Но вскоре младший ребёнок, ещё младенец, исчезает.
    Сэмпл: http://multi-up.com/1110976
    Качество видео: HDRip
    Формат видео: AVI
    Видео: 640x384 (1.67:1), 23.976 fps, XviD build 73 ~986 kbps avg, 0.17 bit/pixel
    Аудио: 48 kHz, MPEG Layer 3, 2 ch, ~128.00 kbps avg

    MediaInfo

    General
    Complete name : E:\Zona Downloads\Vedma.2015.D.HDRip.745MB.MegaPeer.avi
    Format : AVI
    Format/Info : Audio Video Interleave
    File size : 743 MiB
    Duration : 1h 32mn
    Overall bit rate : 1 124 Kbps
    Writing application : VirtualDubMod 1.5.10.3 | www.virtualdub-fr.org || (build 2550/release)
    Writing library : VirtualDubMod build 2550/release
    Video
    ID : 0
    Format : MPEG-4 Visual
    Format profile : Advanced Simple@L5
    Format settings, BVOP : 1
    Format settings, QPel : No
    Format settings, GMC : No warppoints
    Format settings, Matrix : Custom
    Codec ID : XVID
    Codec ID/Hint : XviD
    Duration : 1h 32mn
    Bit rate : 987 Kbps
    Width : 640 pixels
    Height : 384 pixels
    Display aspect ratio : 1.667
    Frame rate : 23.976 fps
    Color space : YUV
    Chroma subsampling : 4:2:0
    Bit depth : 8 bits
    Scan type : Progressive
    Compression mode : Lossy
    Bits/(Pixel*Frame) : 0.167
    Stream size : 652 MiB (88%)
    Writing library : XviD 73
    Audio
    ID : 1
    Format : MPEG Audio
    Format version : Version 1
    Format profile : Layer 3
    Codec ID : 55
    Codec ID/Hint : MP3
    Duration : 1h 32mn
    Bit rate mode : Constant
    Bit rate : 128 Kbps
    Channel(s) : 2 channels
    Sampling rate : 48.0 KHz
    Compression mode : Lossy
    Stream size : 84.5 MiB (11%)
    Alignment : Aligned on interleaves
    Interleave, duration : 42 ms (1.00 video frame)
    Interleave, preload duration : 504 ms
    Writing library : LAME3.99r
    Encoding settings : -m s -V 4 -q 2 -lowpass 17 -b 128

    Скриншот c названием фильма

    Скриншоты

    Скачать .torrent

    Скачать торрент-файл бесплатно и на максимальной скорости!

    Как скачивать? · Что такое торрент? · Рейтинг и ограничения

    !ВНИМАНИЕ!
    Сайт не распространяет и не хранит электронные версии произведений, а занимается лишь лишь предоставлением доступа к создаваемому пользователями каталогу ссылок на торрент-файлы, которые содержат только списки хеш-сумм, убедительная просьба с жалобами обращаться напрямую к пользователю. Файлы для обмена на трекере предоставлены пользователями сайта, и администрация не несёт ответственности за их содержание. Просьба не заливать файлы, защищенные авторскими правами, а также файлы нелегального содержания!


    _________________
    [Профиль] [ЛС]
    Показать сообщения:    
    Ответить на тему

    Текущее время: Сегодня, в 08:18

    Часовой пояс: GMT + 2



    Вы не можете начинать темы
    Вы не можете отвечать на сообщения
    Вы не можете редактировать свои сообщения
    Вы не можете удалять свои сообщения
    Вы не можете голосовать в опросах
    Вы не можете прикреплять файлы к сообщениям
    Вы не можете скачивать файлы