Register  ·  Log in
Forgot password?

  • Ведьма / The VVitch: A New-England Folktale (Роберт Эггерс / Robert Eggers) [2015, США, Великобритания, Канада, Бразилия, Мистика, Ужасы, HDRip] Dub

    Reply to topic
    Author Message


    Post 22-Jul-2016 17:28



    Ведьма / The VVitch: A New-England Folktale
    Страна: США, Великобритания, Канада, Бразилия
    Жанр: Мистика, Ужасы
    Год выпуска: 2015
    Продолжительность: 01:32:26
    Перевод: Профессиональный (дублированный) BD CEE
    Cубтитры: нет
    Режиссер: Роберт Эггерс / Robert Eggers
    В ролях: Аня Тейлор-Джой (Thomasin), Ралф Айнесон (William), Кейт Дики (Katherine), Харви Скримшо (Caleb), Элли Грэйнджер (Mercy), Лукас Доусон (Jonas), Джулиан Ричингс (Governor), Батшеба Гарнетт (The Witch), Сара Стефенс (The Witch, Young), Вахаб Каудхри (Black Phillip, озвучка), Акстюн Анри Дюбэ (Samuel), Атан Конрад Дюбэ (Samuel)
    Описание: Семья колонистов покидает плантацию, чтобы жить на уединенной ферме рядом с лесом в Новой Англии. Но вскоре младший ребёнок, ещё младенец, исчезает.
    Качество видео: HDRip
    Формат видео: AVI
    Видео: 640x384 (1.67:1), 23.976 fps, XviD build 73 ~986 kbps avg, 0.17 bit/pixel
    Аудио: 48 kHz, MPEG Layer 3, 2 ch, ~128.00 kbps avg


    Complete name : E:\Zona Downloads\Vedma.2015.D.HDRip.745MB.MegaPeer.avi
    Format : AVI
    Format/Info : Audio Video Interleave
    File size : 743 MiB
    Duration : 1h 32mn
    Overall bit rate : 1 124 Kbps
    Writing application : VirtualDubMod | || (build 2550/release)
    Writing library : VirtualDubMod build 2550/release
    ID : 0
    Format : MPEG-4 Visual
    Format profile : Advanced Simple@L5
    Format settings, BVOP : 1
    Format settings, QPel : No
    Format settings, GMC : No warppoints
    Format settings, Matrix : Custom
    Codec ID : XVID
    Codec ID/Hint : XviD
    Duration : 1h 32mn
    Bit rate : 987 Kbps
    Width : 640 pixels
    Height : 384 pixels
    Display aspect ratio : 1.667
    Frame rate : 23.976 fps
    Color space : YUV
    Chroma subsampling : 4:2:0
    Bit depth : 8 bits
    Scan type : Progressive
    Compression mode : Lossy
    Bits/(Pixel*Frame) : 0.167
    Stream size : 652 MiB (88%)
    Writing library : XviD 73
    ID : 1
    Format : MPEG Audio
    Format version : Version 1
    Format profile : Layer 3
    Codec ID : 55
    Codec ID/Hint : MP3
    Duration : 1h 32mn
    Bit rate mode : Constant
    Bit rate : 128 Kbps
    Channel(s) : 2 channels
    Sampling rate : 48.0 KHz
    Compression mode : Lossy
    Stream size : 84.5 MiB (11%)
    Alignment : Aligned on interleaves
    Interleave, duration : 42 ms (1.00 video frame)
    Interleave, preload duration : 504 ms
    Writing library : LAME3.99r
    Encoding settings : -m s -V 4 -q 2 -lowpass 17 -b 128

    Скриншот c названием фильма


    Download .torrent

    Download free and at maximum speed!

    How to Download? · What is a torrent? · Ratings and Limitations

    The site does not extend and does not store electronic(digital) versions of products, and only gives access to a reference catalogue created by users on torrent-files which contain only lists of the hash-sums, the earnest entreaty, with complaints(abuse) to access directly to the user. Files for an exchange on tracker are given by users of a site, and the administration does not bear the responsibility for their maintenance. The request to not fill in the files protected by copyrights, and also files of the illegal maintenance!

    [Profile] [PM]
    Display posts from previous:    
    Reply to topic

    The time now is: Today 19:47

    All times are GMT + 3 Hours

    You cannot post new topics in this forum
    You cannot reply to topics in this forum
    You cannot edit your posts in this forum
    You cannot delete your posts in this forum
    You cannot vote in polls in this forum
    You cannot attach files in this forum
    You cannot download files in this forum