BitTorrentTracker PerecTracker.org
BitTorrentTracker PerecTracker.org
    
Регистрация  ·  Вход
 
 · 
Забыли пароль?

  • Неидеальная женщина (Дмитрий Фикс) [2008, мелодрама, комедия, WEB-DLRip]

    Ответить на тему
     
    Автор Сообщение

    Flirldrerve

    Создавать темы 22-Июл-2016 09:54

           

    [Цитировать]

    Неидеальная женщина
    Жанр: мелодрама, комедия
    Год выпуска: 2008
    Продолжительность: 01:34:08

    Режиссёр: Дмитрий Фикс
    В ролях: Анастасия Заворотнюк, Владислав Галкин, Олеся Судзиловская, Александр Сигуев, Галина Петрова, Максим Коновалов, Олег Акулич, Андрей Балякин, Людмила Титова, Наталья Корнейчук, Валерий Ярёменко, Игорь Арташонов, Евгений Москалёв, Валерий Прохоров, Александр Корженков, Людмила Ларионова
    Описание: Сотрудница салона красоты Люба в одночасье остается без работы. Она воспитывает сына одна, и это еще больше осложняет ситуацию. Женщина обращается за помощью к подруге и просит одолжить денег на первое время, пока не найдется новая работа. Та готова выручить мать-одиночку, но в обмен на услугу. Люба должна "случайно" встретиться с Валерием, недавно бросившим эту самую подругу, и очаровать его. А когда мужчина влюбится в новую знакомую, та должна беспардонно бросить его. Тут-то на сцене и появится забытая пассия, которая залечит душевные раны Валерия. Бедной женщине ничего не остается, как согласиться на эту аферу, хотя ей эта затея совсем не по душе.
    Качество видео: WEB-DLRip
    Формат видео: AVI
    Видео: 704x400 (1.76:1), 25 fps, XviD build 73 ~1821 kbps avg, 0.26 bit/pixel
    Аудио: 48 kHz, AC3 Dolby Digital, 3/2 (L,C,R,l,r) + LFE ch, ~384 kbps

    MediaInfo

    Общее
    Полное имя : H:\Неидеальная.женщина.2008.web-dlrip_[1.46]_[teko].avi
    Формат : AVI
    Формат/Информация : Audio Video Interleave
    Размер файла : 1,46 Гбайт
    Продолжительность : 1 ч. 34 м.
    Общий поток : 2215 Кбит/сек
    Программа кодирования : VirtualDubMod 1.5.10.3 | www.virtualdub-fr.org || (build 2550/release)
    Библиотека кодирования : VirtualDubMod build 2550/release
    Видео
    Идентификатор : 0
    Формат : MPEG-4 Visual
    Профиль формата : Advanced Simple@L5
    Параметр BVOP формата : 2
    Параметр QPel формата : Нет
    Параметр GMC формата : Без точки перехода
    Параметр матрицы формата : Выборочная
    Идентификатор кодека : XVID
    Идентификатор кодека/Подсказка : XviD
    Продолжительность : 1 ч. 34 м.
    Битрейт : 1822 Кбит/сек
    Ширина : 704 пикселя
    Высота : 400 пикселей
    Соотношение сторон : 16:9
    Частота кадров : 25,000 кадров/сек
    Цветовое пространство : YUV
    Субдискретизация насыщенности : 4:2:0
    Битовая глубина : 8 бит
    Тип развёртки : Прогрессивная
    Метод сжатия : С потерями
    Бит/(Пиксели*Кадры) : 0.259
    Размер потока : 1,20 Гбайт (82%)
    Библиотека кодирования : XviD 73
    Аудио
    Идентификатор : 1
    Формат : AC-3
    Формат/Информация : Audio Coding 3
    Расширение режима : CM (complete main)
    Параметр Endianness формата : Big
    Идентификатор кодека : 2000
    Продолжительность : 1 ч. 34 м.
    Вид битрейта : Постоянный
    Битрейт : 384 Кбит/сек
    Каналы : 6 каналов
    Расположение каналов : Front: L C R, Side: L R, LFE
    Частота : 48,0 КГц
    Битовая глубина : 16 бит
    Метод сжатия : С потерями
    Размер потока : 258 Мбайт (17%)
    Выравнивание : Разделение по промежуткам
    Продолжительность промежутка : 40 мс. (1,00 видеокадр)
    Время предзагрузки промежутка : 500 мс.

    Скриншоты

    --
    Скачать .torrent

    Скачать торрент-файл бесплатно и на максимальной скорости!

    Как скачивать? · Что такое торрент? · Рейтинг и ограничения

    !ВНИМАНИЕ!
    Сайт не распространяет и не хранит электронные версии произведений, а занимается лишь лишь предоставлением доступа к создаваемому пользователями каталогу ссылок на торрент-файлы, которые содержат только списки хеш-сумм, убедительная просьба с жалобами обращаться напрямую к пользователю. Файлы для обмена на трекере предоставлены пользователями сайта, и администрация не несёт ответственности за их содержание. Просьба не заливать файлы, защищенные авторскими правами, а также файлы нелегального содержания!


    _________________
    [Профиль] [ЛС]
    Показать сообщения:    
    Ответить на тему

    Текущее время: Сегодня, в 02:29

    Часовой пояс: GMT + 2



    Вы не можете начинать темы
    Вы не можете отвечать на сообщения
    Вы не можете редактировать свои сообщения
    Вы не можете удалять свои сообщения
    Вы не можете голосовать в опросах
    Вы не можете прикреплять файлы к сообщениям
    Вы не можете скачивать файлы