Register  ·  Log in
Forgot password?

  • Ведьма / The VVitch: A New-England Folktale (Роберт Эггерс / Robert Eggers) [2015, США, Великобритания, Канада, Бразилия, Мистика, Ужасы, BDRip] Dub

    Reply to topic
    Author Message


    Post 22-Jul-2016 10:54



    Ведьма / The VVitch: A New-England Folktale
    Страна: США, Великобритания, Канада, Бразилия
    Жанр: Мистика, Ужасы
    Год выпуска: 2015
    Продолжительность: 01:32:26
    Перевод: Профессиональный (полное дублирование) BD CEE
    Режиссер: Роберт Эггерс / Robert Eggers
    В ролях: Аня Тейлор-Джой (Thomasin), Ралф Айнесон (William), Кейт Дики (Katherine), Харви Скримшо (Caleb), Элли Грэйнджер (Mercy), Лукас Доусон (Jonas), Джулиан Ричингс (Governor), Батшеба Гарнетт (The Witch), Сара Стефенс (The Witch, Young), Вахаб Каудхри (Black Phillip, озвучка), Акстюн Анри Дюбэ (Samuel), Атан Конрад Дюбэ (Samuel)
    Описание: Семья колонистов покидает плантацию, чтобы жить на уединенной ферме рядом с лесом в Новой Англии. Но вскоре младший ребёнок, ещё младенец, исчезает.
    Качество видео: BDRip | исх. The.Witch.2015.1080p.BluRay.AVC.DTS-HD.MA.5.1 |
    Формат видео: AVI
    Видео: 720x432 (1.67:1), 23.976 fps, XviD build 73 ~1806 kbps avg, 0.24 bit/pixel
    Аудио: 48 kHz, AC3 Dolby Digital, 3/2 (L,C,R,l,r) + LFE ch, ~448 kbps


    Complete name : E:\Zona Downloads\Vedma.2015.D.BDRip.1.46Gb.avi
    Format : AVI
    Format/Info : Audio Video Interleave
    File size : 1.46 GiB
    Duration : 1h 32mn
    Overall bit rate : 2 262 Kbps
    Movie name : Vedma.2015.D.BDRip.1.46Gb_ExKinoRay_by_Twi7ter / Vedma.2015.P.BDRip.1.46Gb_by_Twi7ter
    Director : Twi7ter / Twi7ter
    Genre : Horror / Horror
    Writing application : VirtualDubMod (build 2550/release)
    Original source form/Name : Movie / Movie
    ID : 0
    Format : MPEG-4 Visual
    Format profile : Advanced Simple@L5
    Format settings, BVOP : 2
    Format settings, QPel : No
    Format settings, GMC : No warppoints
    Format settings, Matrix : Custom
    Codec ID : XVID
    Codec ID/Hint : XviD
    Duration : 1h 32mn
    Bit rate : 1 806 Kbps
    Width : 720 pixels
    Height : 432 pixels
    Display aspect ratio : 1.667
    Frame rate : 23.976 fps
    Color space : YUV
    Chroma subsampling : 4:2:0
    Bit depth : 8 bits
    Scan type : Progressive
    Compression mode : Lossy
    Bits/(Pixel*Frame) : 0.242
    Stream size : 1.17 GiB (80%)
    Writing library : XviD 73
    ID : 1
    Format : AC-3
    Format/Info : Audio Coding 3
    Mode extension : CM (complete main)
    Format settings, Endianness : Big
    Codec ID : 2000
    Duration : 1h 32mn
    Bit rate mode : Constant
    Bit rate : 448 Kbps
    Channel(s) : 6 channels
    Channel positions : Front: L C R, Side: L R, LFE
    Sampling rate : 48.0 KHz
    Bit depth : 16 bits
    Compression mode : Lossy
    Stream size : 296 MiB (20%)
    Alignment : Aligned on interleaves
    Interleave, duration : 42 ms (1.00 video frame)
    Interleave, preload duration : 512 ms

    Скриншот c названием фильма


    Download .torrent

    Download free and at maximum speed!

    How to Download? · What is a torrent? · Ratings and Limitations

    The site does not extend and does not store electronic(digital) versions of products, and only gives access to a reference catalogue created by users on torrent-files which contain only lists of the hash-sums, the earnest entreaty, with complaints(abuse) to access directly to the user. Files for an exchange on tracker are given by users of a site, and the administration does not bear the responsibility for their maintenance. The request to not fill in the files protected by copyrights, and also files of the illegal maintenance!

    [Profile] [PM]
    Display posts from previous:    
    Reply to topic

    The time now is: Today 18:47

    All times are GMT + 3 Hours

    You cannot post new topics in this forum
    You cannot reply to topics in this forum
    You cannot edit your posts in this forum
    You cannot delete your posts in this forum
    You cannot vote in polls in this forum
    You cannot attach files in this forum
    You cannot download files in this forum