Register  ·  Log in
Forgot password?

  • Проект: Панацея (Георгий Саенко) [2013, пост-апокалипсис, триллер, боевик, драма, WEB-DLRip]

    Reply to topic
    Author Message


    Post 22-Jul-2016 10:54



    Проект: Панацея
    Жанр: пост-апокалипсис, триллер, боевик, драма
    Год выпуска: 2013
    Продолжительность: 01:39:58
    Режиссёр: Георгий Саенко
    В ролях: Светлана Тогобицкая, Денис Горин, Петр Мартыненко, Светлана Николаева, Дмитрий Турок, Вячеслав Булавин, Павель Кобзарь, Светлана Лучко, Алексей Чагай, Евгений Безлепкин, Вадим Зубков
    Описание: Население Земли поражено неизвестным вирусом. Инфицированные превращаются в одержимых яростью мутантов-людоедов. Спустя год после начала пандемии остаются немногие разрозненные группы выживших. В одну из вылазок за медикаментами и продовольствием члены маленькой группы встречают странную пару — доктор и маленькая девочка. Они безоружны и непонятно, как им удалось выжить.
    Качество видео: WEB-DLRip
    Формат видео: AVI
    Видео: 720x304 (2.37:1), 24.000 fps, XviD build 50 ~1749 kbps avg, 0.33 bit/pixel
    Аудио: 44.100 kHz, MPEG Layer 3, 2 ch, ~192.00 kbps avg


    Complete name : E:\Zona Downloads\Proekt.Panaceja.2015.WEB-DLRip.avi
    Format : AVI
    Format/Info : Audio Video Interleave
    File size : 1.36 GiB
    Duration : 1h 39mn
    Overall bit rate : 1 951 Kbps
    Writing application : VirtualDubMod | || (build 2550/release)
    Writing library : VirtualDubMod build 2550/release
    ID : 0
    Format : MPEG-4 Visual
    Format profile : Advanced Simple@L5
    Format settings, BVOP : 2
    Format settings, QPel : No
    Format settings, GMC : No warppoints
    Format settings, Matrix : Default (MPEG)
    Codec ID : XVID
    Codec ID/Hint : XviD
    Duration : 1h 39mn
    Bit rate : 1 749 Kbps
    Width : 720 pixels
    Height : 304 pixels
    Display aspect ratio : 2.35:1
    Frame rate : 24.000 fps
    Color space : YUV
    Chroma subsampling : 4:2:0
    Bit depth : 8 bits
    Scan type : Progressive
    Compression mode : Lossy
    Bits/(Pixel*Frame) : 0.333
    Stream size : 1.22 GiB (90%)
    Writing library : XviD 1.2.1 (UTC 2008-12-04)
    ID : 1
    Format : MPEG Audio
    Format version : Version 1
    Format profile : Layer 3
    Codec ID : 55
    Codec ID/Hint : MP3
    Duration : 1h 39mn
    Bit rate mode : Constant
    Bit rate : 192 Kbps
    Channel(s) : 2 channels
    Sampling rate : 44.1 KHz
    Compression mode : Lossy
    Stream size : 137 MiB (10%)
    Alignment : Split accross interleaves
    Interleave, duration : 42 ms (1.00 video frame)
    Interleave, preload duration : 500 ms
    Writing library : LAME3.99r
    Encoding settings : -m s -V 4 -q 0 -lowpass 18.6 -b 192

    Скриншот c названием фильма


    Download .torrent

    Download free and at maximum speed!

    How to Download? · What is a torrent? · Ratings and Limitations

    The site does not extend and does not store electronic(digital) versions of products, and only gives access to a reference catalogue created by users on torrent-files which contain only lists of the hash-sums, the earnest entreaty, with complaints(abuse) to access directly to the user. Files for an exchange on tracker are given by users of a site, and the administration does not bear the responsibility for their maintenance. The request to not fill in the files protected by copyrights, and also files of the illegal maintenance!

    [Profile] [PM]
    Display posts from previous:    
    Reply to topic

    The time now is: Today 10:04

    All times are GMT + 3 Hours

    You cannot post new topics in this forum
    You cannot reply to topics in this forum
    You cannot edit your posts in this forum
    You cannot delete your posts in this forum
    You cannot vote in polls in this forum
    You cannot attach files in this forum
    You cannot download files in this forum