BitTorrentTracker PerecTracker.org
BitTorrentTracker PerecTracker.org
    
Регистрация  ·  Вход
 
 · 
Забыли пароль?

  • Хорошие дети не плачут / Achtste Groepers Huilen Niet / Cool Kids Don\'t Cry (Деннис Ботс / Dennis Bots) [2012, Нидерланды, Драма, Семейный, HDRip] DVO (студия Elrom)

    Ответить на тему
     
    Автор Сообщение

    Light

    Создавать темы 22-Июл-2016 01:31

           

    [Цитировать]

    Хорошие дети не плачут / Achtste Groepers Huilen Niet / Cool Kids Don't Cry
    Страна: Нидерланды
    Жанр: Драма, Семейный
    Год выпуска: 2012
    Продолжительность: 01:39:50
    Перевод: Профессиональный (двухголосый закадровый) студия Elrom
    Cубтитры: нет
    Режиссер: Деннис Ботс / Dennis Bots
    В ролях: Ханна Оббек, Нильс Веркоохен, Фиона Ливингстон, Брэм Флик, Амин Бельяндуз, Ева Ван-дер-Гюхт, Люк Питерс, Иоханна тер Стехе, Рейну Буссемакер, Крис Комвалиус
    Описание: Шестиклассница Акки настоящая хулиганка: она любит футбол, дерётся с мальчишками и ничего не боится. Ничего, кроме любви. Однако, когда ей ставят диагноз лейкемия, именно любовь дает ей силы бороться с болезнью и принять неизбежное.
    Доп. информация: Релиз от Megapeer
    Сэмпл: http://multi-up.com/1110891
    Качество видео: HDRip (Исх. Хорошие дети не плачут. 2012. BDRip 720p (AleksSin))
    Формат видео: AVI
    Видео: 688x288 (2.39:1), 23.976 fps, XviD build 73 ~910 kbps avg, 0.19 bit/pixel
    Аудио: 48 kHz, MPEG Layer 3, 2 ch, ~128.00 kbps avg

    MediaInfo

    ОбщееПолное имя : D:\загрузки\Achtste.Groepers.Huilen.Niet.2012.HDRip.745MB.aviФормат : AVIФормат/Информация : Audio Video InterleaveРазмер файла : 746 МбайтПродолжительность : 1 ч. 39 м.Общий поток : 1044 Кбит/сек
    ВидеоИдентификатор : 0Формат : MPEG-4 VisualПрофиль формата : Advanced Simple@L5Параметр BVOP формата : 1Параметр QPel формата : НетПараметр GMC формата : Без точки переходаПараметр матрицы формата : ВыборочнаяИдентификатор кодека : XVIDИдентификатор кодека/Подсказка : XviDПродолжительность : 1 ч. 39 м.Битрейт : 910 Кбит/секШирина : 688 пикселейВысота : 288 пикселейСоотношение сторон : 2,40:1Частота кадров : 23,976 (24000/1001) кадра/секЦветовое пространство : YUVСубдискретизация насыщенности : 4:2:0Битовая глубина : 8 битТип развёртки : ПрогрессивнаяМетод сжатия : С потерямиБит/(Пиксели*Кадры) : 0.192Размер потока : 650 Мбайт (87%)Библиотека кодирования : XviD 73
    АудиоИдентификатор : 1Формат : MPEG AudioВерсия формата : Version 1Профиль формата : Layer 3Режим : Joint stereoРасширение режима : MS StereoИдентификатор кодека : 55Идентификатор кодека/Подсказка : MP3Продолжительность : 1 ч. 39 м.Вид битрейта : ПостоянныйБитрейт : 128 Кбит/секКаналы : 2 каналаЧастота : 48,0 КГцМетод сжатия : С потерямиРазмер потока : 91,4 Мбайт (12%)Выравнивание : Соединение по промежуткамПродолжительность промежутка : 167 мс. (4,00 видеокадра)Время предзагрузки промежутка : 216 мс.Заголовок : P2Библиотека кодирования : LAME3.99rНастройки программы : -m j -V 4 -q 2 -lowpass 17 -b 128

    Скриншоты

    Скачать .torrent

    Скачать торрент-файл бесплатно и на максимальной скорости!

    Как скачивать? · Что такое торрент? · Рейтинг и ограничения

    !ВНИМАНИЕ!
    Сайт не распространяет и не хранит электронные версии произведений, а занимается лишь лишь предоставлением доступа к создаваемому пользователями каталогу ссылок на торрент-файлы, которые содержат только списки хеш-сумм, убедительная просьба с жалобами обращаться напрямую к пользователю. Файлы для обмена на трекере предоставлены пользователями сайта, и администрация не несёт ответственности за их содержание. Просьба не заливать файлы, защищенные авторскими правами, а также файлы нелегального содержания!


    _________________
    [Профиль] [ЛС]
    Показать сообщения:    
    Ответить на тему

    Текущее время: Сегодня, в 12:00

    Часовой пояс: GMT + 2



    Вы не можете начинать темы
    Вы не можете отвечать на сообщения
    Вы не можете редактировать свои сообщения
    Вы не можете удалять свои сообщения
    Вы не можете голосовать в опросах
    Вы не можете прикреплять файлы к сообщениям
    Вы не можете скачивать файлы