BitTorrentTracker PerecTracker.org
BitTorrentTracker PerecTracker.org
    
Регистрация  ·  Вход
 
 · 
Забыли пароль?

  • Друзья / Friends / Сезон: 6 / Серии: 1-25 (25) (Гари Хэлворсон, Кевин Брайт, Майкл Лембек) [1999, комедия, мелодрама, BDRip 720p] 2xMVO (Paramount Comedy, Россия / РТР / СТС) + Ukr (1+1) + Original + Sub (Rus, Eng)

    Ответить на тему
     
    Автор Сообщение

    rechyn

    Создавать темы 21-Июл-2016 21:49

           

    [Цитировать]

    Друзья / Friends-Год выпуска: 1999
    Страна: США
    Студия: Warner Bros Entertainment
    Жанр: комедия, мелодрама
    Продолжительность: ~23 минуты (серия)
    Перевод:

    Профессиональный (многоголосый закадровый) компания "True Dubbing Studio" по заказу Paramount Comedy
    Профессиональный (многоголосый закадровый) студия "Нота" по заказу т/к "Россия"
    Профессиональный (многоголосый закадровый) 1+1 |Украинский|
    -Режиссёр: Гари Хэлворсон, Кевин Брайт, Майкл Лембек-В ролях: Дженнифер Энистон, Кортни Кокс, Лиза Кудроу, Мэтт ЛеБлан, Мэттью Перри, Дэвид Швиммер, Джеймс Майкл Тайлер, Эллиот Гулд, Кристина Пиклз, Мэгги Уилер, Пол Радд, Джейн Сиббетт и другие.-Роли озвучивали:

    Paramount Comedy: Иван Калинин, Радик Мухамедзянов, Никита Прозоровский, Ольга Голованова, Ольга Сирина, Анастасия Лапина.
    Россия: Сергей Быстрицкий, Никита Прозоровский, Ольга Сирина, Людмила Ильина.
    -Описание: Главные герои — шестеро друзей — Рейчел, Моника, Фиби, Джо, Чендлер и Росс. Три девушки и три парня, которые дружат, живут по соседству, вместе убивают время и противостоят жестокой реальности, делятся своими секретами и иногда очень сильно влюбляются.-РЕЛИЗ ОТ: V.SERIJ2013-

    Спасибо

    #Antisnl#, Beer kolesik Drinkers - за запись звука с телеканала Paramount Comedy;
    Volshebnik, Nez - за аудиодорожки Россия и 1+1;
    markinscor - за русские субтитры;
    v.serij2013 (т.е., мне) - за синхронизацию аудиодорожки Paramount Comedy.
    -Качество: BDRip 720p |HDClub|
    Формат: MKV
    Видео кодек: H.264
    Аудио кодек: AC3
    Видео: H.264, 1280x720 (16:9), 23.976 fps, ~7794 kbps, 0.353 bit/pixel
    Аудио:

    русская |Paramount Comedy|: AC3, 48 kHz, 2 ch, 192 kbps
    русская |Россия|: AC3, 48 kHz, 2 ch, 256 kbps
    украинская |1+1|: AC3, 48 kHz, 2 ch, 192 kbps
    английская |Оригинал|: AC3, 48 kHz, 6 ch, 640 kbps
    Субтитры: русские, английские |SDH|-Сэмпл \-

    Скриншоты

    Список серий

    01. The One After Vegas
    02. The One Where Ross Hugs Rachel
    03. The One with Ross's Denial
    04. The One Where Joey Loses His Insurance
    05. The One with Joey's Porsche
    06. The One on the Last Night
    07. The One Where Phoebe Runs
    08. The One with Ross's Teeth
    09. The One Where Ross Got High
    10. The One with the Routine
    11. The One with the Apothecary Table
    12. The One with the Joke
    13. The One with Rachel's Sister
    14. The One Where Chandler Can't Cry
    15. The One That Could Have Been (Part 1)
    16. The One That Could Have Been (Part 2)
    17. The One with Unagi
    18. The One Where Ross Dates a Student
    19. The One with Joey's Fridge
    20. The One with Mac and C.H.E.E.S.E.
    21. The One Where Ross Meets Elizabeth's Dad
    22. The One Where Paul's the Man
    23. The One with the Ring
    24. The One with the Proposal (Part 1)
    25. The One with the Proposal (Part 2)

    Media Info

    General
    Unique ID                      : 224577106872934325491594254510235687953 (0xA8F3FA3D1D7C93ABBC5F9B11F0B19C11)
    Complete name                  : E:\Video\HD\Series (HD)\Friends Season 6 (BDRip 720p). The One After Vegas.mkv
    Format                         : Matroska
    Format version                 : Version 4 / Version 2
    File size                      : 1.43 GiB
    Duration                       : 22mn 11s
    Overall bit rate               : 9 259 Kbps
    Encoded date                   : UTC 2016-07-05 02:21:32
    Writing application            : mkvmerge v8.8.0 ('Wind at my back') 32bit
    Writing library                : libebml v1.3.3 + libmatroska v1.4.4
    DURATION                       : 00:22:11.008000000
    NUMBER_OF_FRAMES               : 41594
    NUMBER_OF_BYTES                : 31944192
    _STATISTICS_WRITING_APP        : mkvmerge v8.8.0 ('Wind at my back') 32bit
    _STATISTICS_WRITING_DATE_UTC   : 2016-07-05 02:21:32
    _STATISTICS_TAGS               : BPS DURATION NUMBER_OF_FRAMES NUMBER_OF_BYTES
    Video
    ID                             : 1
    Format                         : AVC
    Format/Info                    : Advanced Video Codec
    Format profile                 : High@L4.0
    Format settings, CABAC         : Yes
    Format settings, ReFrames      : 8 frames
    Codec ID                       : V_MPEG4/ISO/AVC
    Duration                       : 22mn 10s
    Bit rate                       : 7 794 Kbps
    Width                          : 1 280 pixels
    Height                         : 720 pixels
    Display aspect ratio           : 16:9
    Frame rate mode                : Constant
    Frame rate                     : 23.976 fps
    Color space                    : YUV
    Chroma subsampling             : 4:2:0
    Bit depth                      : 8 bits
    Scan type                      : Progressive
    Bits/(Pixel*Frame)             : 0.353
    Stream size                    : 1.21 GiB (84%)
    Writing library                : x264 core 129 r2230 1cffe9f
    Encoding settings              : cabac=1 / ref=8 / deblock=1:-3:-3 / analyse=0x3:0x133 / me=umh / subme=10 / psy=1 / psy_rd=1.20:0.00 / mixed_ref=1 / me_range=48 / chroma_me=1 / trellis=2 / 8x8dct=1 / cqm=0 / deadzone=21,11 / fast_pskip=0 / chroma_qp_offset=-2 / threads=12 / lookahead_threads=2 / sliced_threads=0 / nr=0 / decimate=1 / interlaced=0 / bluray_compat=0 / constrained_intra=0 / bframes=7 / b_pyramid=2 / b_adapt=2 / b_bias=0 / direct=3 / weightb=1 / open_gop=0 / weightp=2 / keyint=250 / keyint_min=23 / scenecut=40 / intra_refresh=0 / rc=crf / mbtree=0 / crf=17.5 / qcomp=0.70 / qpmin=0 / qpmax=69 / qpstep=4 / ip_ratio=1.40 / pb_ratio=1.30 / aq=1:0.75
    Language                       : English
    Default                        : Yes
    Forced                         : No
    DURATION                       : 00:22:10.413000000
    NUMBER_OF_FRAMES               : 31898
    NUMBER_OF_BYTES                : 1326431846
    _STATISTICS_WRITING_APP        : mkvmerge v8.8.0 ('Wind at my back') 32bit
    _STATISTICS_WRITING_DATE_UTC   : 2016-07-05 02:21:32
    _STATISTICS_TAGS               : BPS DURATION NUMBER_OF_FRAMES NUMBER_OF_BYTES
    Audio #1
    ID                             : 2
    Format                         : AC-3
    Format/Info                    : Audio Coding 3
    Mode extension                 : CM (complete main)
    Format settings, Endianness    : Big
    Codec ID                       : A_AC3
    Duration                       : 22mn 11s
    Bit rate mode                  : Constant
    Bit rate                       : 192 Kbps
    Channel(s)                     : 2 channels
    Channel positions              : Front: L R
    Sampling rate                  : 48.0 KHz
    Bit depth                      : 16 bits
    Compression mode               : Lossy
    Stream size                    : 30.5 MiB (2%)
    Title                          : MVO (Paramount Comedy)
    Language                       : Russian
    Default                        : Yes
    Forced                         : No
    Audio #2
    ID                             : 3
    Format                         : AC-3
    Format/Info                    : Audio Coding 3
    Mode extension                 : CM (complete main)
    Format settings, Endianness    : Big
    Codec ID                       : A_AC3
    Duration                       : 22mn 11s
    Bit rate mode                  : Constant
    Bit rate                       : 256 Kbps
    Channel(s)                     : 2 channels
    Channel positions              : Front: L R
    Sampling rate                  : 48.0 KHz
    Bit depth                      : 16 bits
    Compression mode               : Lossy
    Stream size                    : 40.6 MiB (3%)
    Title                          : MVO (Россия / РТР / СТС)
    Language                       : Russian
    Default                        : No
    Forced                         : No
    Audio #3
    ID                             : 4
    Format                         : AC-3
    Format/Info                    : Audio Coding 3
    Mode extension                 : CM (complete main)
    Format settings, Endianness    : Big
    Codec ID                       : A_AC3
    Duration                       : 22mn 11s
    Bit rate mode                  : Constant
    Bit rate                       : 192 Kbps
    Channel(s)                     : 2 channels
    Channel positions              : Front: L R
    Sampling rate                  : 48.0 KHz
    Bit depth                      : 16 bits
    Compression mode               : Lossy
    Stream size                    : 30.5 MiB (2%)
    Title                          : MVO (1+1)
    Language                       : Ukrainian
    Default                        : No
    Forced                         : No
    Audio #4
    ID                             : 5
    Format                         : AC-3
    Format/Info                    : Audio Coding 3
    Mode extension                 : CM (complete main)
    Format settings, Endianness    : Big
    Codec ID                       : A_AC3
    Duration                       : 22mn 11s
    Bit rate mode                  : Constant
    Bit rate                       : 640 Kbps
    Channel(s)                     : 6 channels
    Channel positions              : Front: L C R, Side: L R, LFE
    Sampling rate                  : 48.0 KHz
    Bit depth                      : 16 bits
    Compression mode               : Lossy
    Stream size                    : 102 MiB (7%)
    Title                          : Original
    Language                       : English
    Default                        : No
    Forced                         : No
    Text #1
    ID                             : 6
    Format                         : UTF-8
    Codec ID                       : S_TEXT/UTF8
    Codec ID/Info                  : UTF-8 Plain Text
    Title                          : Россия / РТР / СТС
    Language                       : Russian
    Default                        : No
    Forced                         : No
    Text #2
    ID                             : 7
    Format                         : UTF-8
    Codec ID                       : S_TEXT/UTF8
    Codec ID/Info                  : UTF-8 Plain Text
    Title                          : Original
    Language                       : English
    Default                        : No
    Forced                         : No
    Menu
    00:00:00.000                   : en:00:00:00.000
    00:02:09.254                   : en:00:02:09.254
    00:12:08.227                   : en:00:12:08.227
    00:21:26.994                   : en:00:21:26.994
    -
    Скачать .torrent

    Скачать торрент-файл бесплатно и на максимальной скорости!

    Как скачивать? · Что такое торрент? · Рейтинг и ограничения

    !ВНИМАНИЕ!
    Сайт не распространяет и не хранит электронные версии произведений, а занимается лишь лишь предоставлением доступа к создаваемому пользователями каталогу ссылок на торрент-файлы, которые содержат только списки хеш-сумм, убедительная просьба с жалобами обращаться напрямую к пользователю. Файлы для обмена на трекере предоставлены пользователями сайта, и администрация не несёт ответственности за их содержание. Просьба не заливать файлы, защищенные авторскими правами, а также файлы нелегального содержания!


    _________________
    [Профиль] [ЛС]
    Показать сообщения:    
    Ответить на тему

    Текущее время: Сегодня, в 20:00

    Часовой пояс: GMT + 2



    Вы не можете начинать темы
    Вы не можете отвечать на сообщения
    Вы не можете редактировать свои сообщения
    Вы не можете удалять свои сообщения
    Вы не можете голосовать в опросах
    Вы не можете прикреплять файлы к сообщениям
    Вы не можете скачивать файлы