BitTorrentTracker PerecTracker.org
BitTorrentTracker PerecTracker.org
    
Регистрация  ·  Вход
 
 · 
Забыли пароль?

  • Месть от кутюр / Портниха / The Dressmaker (Джослин Мурхаус / Jocelyn Moorhouse) [2015, Австралия, драма, HDRip] MVO (FocusStudio)

    Ответить на тему
     
    Автор Сообщение

    Light

    Создавать темы 21-Июл-2016 21:19

           

    [Цитировать]

    Месть от кутюр / Портниха / The Dressmaker
    Страна: Австралия
    Жанр: драма
    Год выпуска: 2015
    Продолжительность: 01:58:52
    Перевод: Профессиональный (многоголосый закадровый) FocusStudio
    Cубтитры: нет
    Режиссер: Джослин Мурхаус / Jocelyn Moorhouse
    В ролях: Кейт Уинслет, Лиам Хемсворт, Сара Снук, Хьюго Уивинг, Кэролайн Гудолл, Джуди Дэвис, Керри Фокс, Ребекка Гибни, Шэйн Джейкобсон, Хейли Магнус
    Описание: Гламурная женщина возвращается в родной город, откуда уехала еще ребенком после обвинения в убийстве. Жители городка сначала не принимают ее, но постепенно она завоевывает расположение местных дам благодаря остроумию и умению кроить безупречные наряды.
    Сэмпл: http://sendfile.su/1251921
    Качество видео: HDRip
    Формат видео: AVI
    Видео: 720x304 (2.37:1), 23.976 fps, XviD build 50 ~1297 kbps avg, 0.25 bit/pixel
    Аудио: 48 kHz, AC3 Dolby Digital, 3/2 (L,C,R,l,r) + LFE ch, ~448 kbps

    MediaInfo

    General
    Complete name : E:\Zona Downloads\The Dressmaker.2O15.P.HDRip.1.46Gb.avi
    Format : AVI
    Format/Info : Audio Video Interleave
    File size : 1.46 GiB
    Duration : 1h 58mn
    Overall bit rate : 1 755 Kbps
    Movie name : p0PtH1xa.2O15.P.HDRip.1.46Gb
    Writing application : VirtualDubMod 1.5.10.2 (build 2540/release)
    Original source form/Name : Movie
    Video
    ID : 0
    Format : MPEG-4 Visual
    Format profile : Advanced Simple@L5
    Format settings, BVOP : 2
    Format settings, QPel : No
    Format settings, GMC : No warppoints
    Format settings, Matrix : Custom
    Codec ID : XVID
    Codec ID/Hint : XviD
    Duration : 1h 58mn
    Bit rate : 1 298 Kbps
    Width : 720 pixels
    Height : 304 pixels
    Display aspect ratio : 2.35:1
    Frame rate : 23.976 fps
    Color space : YUV
    Chroma subsampling : 4:2:0
    Bit depth : 8 bits
    Scan type : Progressive
    Compression mode : Lossy
    Bits/(Pixel*Frame) : 0.247
    Stream size : 1.08 GiB (74%)
    Writing library : XviD 1.2.1 (UTC 2008-12-04)
    Audio
    ID : 1
    Format : AC-3
    Format/Info : Audio Coding 3
    Mode extension : CM (complete main)
    Format settings, Endianness : Big
    Codec ID : 2000
    Duration : 1h 58mn
    Bit rate mode : Constant
    Bit rate : 448 Kbps
    Channel(s) : 6 channels
    Channel positions : Front: L C R, Side: L R, LFE
    Sampling rate : 48.0 KHz
    Bit depth : 16 bits
    Compression mode : Lossy
    Stream size : 381 MiB (26%)
    Alignment : Split accross interleaves
    Interleave, duration : 42 ms (1.00 video frame)
    Interleave, preload duration : 500 ms

    Скриншот c названием фильма

    Скриншоты

    Скачать .torrent

    Скачать торрент-файл бесплатно и на максимальной скорости!

    Как скачивать? · Что такое торрент? · Рейтинг и ограничения

    !ВНИМАНИЕ!
    Сайт не распространяет и не хранит электронные версии произведений, а занимается лишь лишь предоставлением доступа к создаваемому пользователями каталогу ссылок на торрент-файлы, которые содержат только списки хеш-сумм, убедительная просьба с жалобами обращаться напрямую к пользователю. Файлы для обмена на трекере предоставлены пользователями сайта, и администрация не несёт ответственности за их содержание. Просьба не заливать файлы, защищенные авторскими правами, а также файлы нелегального содержания!


    _________________
    [Профиль] [ЛС]
    Показать сообщения:    
    Ответить на тему

    Текущее время: Сегодня, в 14:40

    Часовой пояс: GMT + 2



    Вы не можете начинать темы
    Вы не можете отвечать на сообщения
    Вы не можете редактировать свои сообщения
    Вы не можете удалять свои сообщения
    Вы не можете голосовать в опросах
    Вы не можете прикреплять файлы к сообщениям
    Вы не можете скачивать файлы