BitTorrentTracker PerecTracker.org
BitTorrentTracker PerecTracker.org
    
Регистрация  ·  Вход
 
 · 
Забыли пароль?

  • Двое во вселенной / Переписка / La corrispondenza / The Correspondence (Джузеппе Торнаторе / Giuseppe Tornatore) [2016, Италия, мелодрама, драма, HDRip] Dub (HTB+)

    Ответить на тему
     
    Автор Сообщение

    rechyn

    Создавать темы 21-Июл-2016 17:07

           

    [Цитировать]

    Двое во вселенной / Переписка / La corrispondenza / The Correspondence
    Страна: Италия
    Жанр: Mелодрама, драма
    Год выпуска: 2016
    Продолжительность: 02:01:37
    Перевод: Профессиональный (дублированный) HTB+
    Cубтитры: отсутствуют
    Оригинальная аудиодорожка: нет
    Режиссёр: Джузеппе Торнаторе / Giuseppe Tornatore
    В ролях: Джереми Айронс, Ольга Куриленко, Саймон Джонс, Джим Уоррен, Шона МакДональд, Оскар Сандерс, Паоло Калабрези, Анна Савва, Ирина Кара, Сэмми Морено, и др.
    Описание: Эд и Эми — учёный и студентка, изучающие теорию струн и космических двойников, вселенную и параллельные измерения. Они — родственные души, созданные друг для друга. Их любовь не знает границ и расстояний. Но внезапно Эд исчезает. А Эми продолжает получать от него послания. Что это — эксперимент учёного, который решил скрыться от мира? Или игра высших сил, посылающих ей любимого в чужих обличьях? Или она продолжает видеть свет погасшей звезды?

    Качество видео: HDRip
    Формат видео: AVI
    Vidеo: XviD 73 MPEG-4, 688x288 (2.40:1) 23.976 fps, ~725 kbps avg, 0.153 bit/pixel
    Аudiо: MP-3 stereo, CBR 128 kbps 2 ch, 48.0 KHz

    MediaInfo

    ОбщееПолное имя : C:\La_corrispondenza_2016_HDRip_[perectracker.org].aviФормат : AVIФормат/Информация : Audio Video InterleaveРазмер файла : 750 МбайтПродолжительность : 2 ч. 1 м.Общий поток : 862 Кбит/секНазвание фильма : La_corrispondenza_2016_HDRip_[perectracker.org].aviРежиссёр : NetworkЖанр : Mелодрама, драмаПрограмма кодирования : VirtualDubModRus 1.5.10.2 (build 2542/release)Формат оригинала/Имя : Фильмы 2016Правообладатель : NetworkПримечание : 20 июля 2016 г.
    ВидеоИдентификатор : 0Формат : MPEG-4 VisualПрофиль формата : Advanced Simple@L5Параметр BVOP формата : 1Параметр QPel формата : НетПараметр GMC формата : Без точки переходаПараметр матрицы формата : ВыборочнаяИдентификатор кодека : DX50Идентификатор кодека/Подсказка : DivX 5Продолжительность : 2 ч. 1 м.Битрейт : 725 Кбит/секШирина : 688 пикселейВысота : 288 пикселейСоотношение сторон : 2,40:1Частота кадров : 23,976 кадра/секЦветовое пространство : YUVСубдискретизация насыщенности : 4:2:0Битовая глубина : 8 битТип развёртки : ПрогрессивнаяМетод сжатия : С потерямиБит/(Пиксели*Кадры) : 0.153Размер потока : 631 Мбайт (84%)Библиотека кодирования : XviD 73
    АудиоИдентификатор : 1Формат : MPEG AudioВерсия формата : Version 1Профиль формата : Layer 3Режим : Joint stereoРасширение режима : MS StereoИдентификатор кодека : 55Идентификатор кодека/Подсказка : MP3Продолжительность : 2 ч. 1 м.Вид битрейта : ПостоянныйБитрейт : 128 Кбит/секКаналы : 2 каналаЧастота : 48,0 КГцМетод сжатия : С потерямиРазмер потока : 111 Мбайт (15%)Выравнивание : Соединение по промежуткамПродолжительность промежутка : 42 мс. (1,00 видеокадр)Время предзагрузки промежутка : 504 мс.Библиотека кодирования : LAME3.99rНастройки программы : -m j -V 4 -q 2 -lowpass 17 -b 128

    Скриншот c названием фильма

    Скриншоты

    Скачать .torrent

    Скачать торрент-файл бесплатно и на максимальной скорости!

    Как скачивать? · Что такое торрент? · Рейтинг и ограничения

    !ВНИМАНИЕ!
    Сайт не распространяет и не хранит электронные версии произведений, а занимается лишь лишь предоставлением доступа к создаваемому пользователями каталогу ссылок на торрент-файлы, которые содержат только списки хеш-сумм, убедительная просьба с жалобами обращаться напрямую к пользователю. Файлы для обмена на трекере предоставлены пользователями сайта, и администрация не несёт ответственности за их содержание. Просьба не заливать файлы, защищенные авторскими правами, а также файлы нелегального содержания!


    _________________
    [Профиль] [ЛС]
    Показать сообщения:    
    Ответить на тему

    Текущее время: Сегодня, в 18:57

    Часовой пояс: GMT + 2



    Вы не можете начинать темы
    Вы не можете отвечать на сообщения
    Вы не можете редактировать свои сообщения
    Вы не можете удалять свои сообщения
    Вы не можете голосовать в опросах
    Вы не можете прикреплять файлы к сообщениям
    Вы не можете скачивать файлы