BitTorrentTracker PerecTracker.org
BitTorrentTracker PerecTracker.org
    
Регистрация  ·  Вход
 
 · 
Забыли пароль?

  • Репортерша / Whiskey Tango Foxtrot (Гленн Фикарра / Glenn Ficarra, Джон Рекуа / John Requa) [2016, США, драма, комедия, военный, BDRip-AVC] Dub + Sub (rus)

    Ответить на тему
     
    Автор Сообщение

    rechyn

    Создавать темы 21-Июл-2016 17:07

           

    [Цитировать]

    Репортерша
    Whiskey Tango Foxtrot

    Страна: США
    Жанр: драма, комедия, военный, биография
    Год выпуска: 2016
    Продолжительность: 01:51:48
    Перевод: Профессиональный (полное дублирование) [iTunes]
    Субтитры: русские (форсированные)
    Оригинальная аудиодорожка: нет
    Режиссер: Гленн Фикарра / Glenn Ficarra, Джон Рекуа / John Requa
    В ролях: Тина Фей, Марго Робби, Мартин Фриман, Альфред Молина, Кристофер Эбботт, Билли Боб Торнтон, Николас Браун, Стивен Пикок, Шейла Ванд, Эван Йоникит, Фахим Анвар, Джош Чарльз
    Описание:
    Фильм расскажет о деятельности журналистки в качестве репортёра в Афганистане и Пакистане, после прибытия туда в 2002 году.


    Автор рипа: stalkerok
    Сэмпл
    Качество видео: BDRip-AVC [Whiskey Tango Foxtrot (2016) 1080p BD-Remux HDCLUB]
    Формат видео: MKV
    Видео: 1417 Кбит/сек, 896x504 (16:9), 23,976 кадр/сек, AVC
    Аудио: русский, 384 Кбит/сек, 48 КГц, 16 бит, 5.1, AC3
    Навигация по главам: есть

    MediaInfo

    Общее
    Уникальный идентификатор : 220093011363456748786087836991321963617 (0xA5945F42D4F8A25CA5B49C1C266A7C61)
    Полное имя : M:\2Rips\Whiskey Tango Foxtrot\Whiskey.Tango.Foxtrot.2016.BDRip-AVC.Dub.1.45Gb.stalkerok.new-team.mkv
    Формат : Matroska
    Версия формата : Version 4 / Version 2
    Размер файла : 1,41 Гбайт
    Продолжительность : 1 ч. 51 м.
    Общий поток : 1802 Кбит/сек
    Название фильма : Whiskey Tango Foxtrot (2016) (Rip by stalkerok)
    Дата кодирования : UTC 2016-07-21 09:32:34
    Программа кодирования : mkvmerge v8.6.1 ('Flying') 64bit
    Библиотека кодирования : libebml v1.3.3 + libmatroska v1.4.4
    Видео
    Идентификатор : 1
    Формат : AVC
    Формат/Информация : Advanced Video Codec
    Профиль формата : High@L4.1
    Параметр CABAC формата : Да
    Параметр ReFrames формата : 14 кадров
    Идентификатор кодека : V_MPEG4/ISO/AVC
    Продолжительность : 1 ч. 51 м.
    Битрейт : 1417 Кбит/сек
    Ширина : 896 пикселей
    Высота : 504 пикселя
    Соотношение сторон : 16:9
    Режим частоты кадров : Постоянный
    Частота кадров : 23,976 (24000/1001) кадра/сек
    Цветовое пространство : YUV
    Субдискретизация насыщенности : 4:2:0
    Битовая глубина : 8 бит
    Тип развёртки : Прогрессивная
    Бит/(Пиксели*Кадры) : 0.131
    Размер потока : 1,11 Гбайт (79%)
    Заголовок : Whiskey Tango Foxtrot (2016) (Rip by stalkerok)
    Библиотека кодирования : x264 core 148 r2705+54 9f484c1 t_mod_Custom [8-bit@all X86_64]
    Настройки программы : cabac=1 / ref=14 / deblock=1:-3:-2 / analyse=0x3:0x133 / me=umh / subme=10 / psy=1 / fade_compensate=0.00 / psy_rd=1.00:0.00 / mixed_ref=1 / me_range=32 / chroma_me=1 / trellis=2 / 8x8dct=1 / cqm=0 / deadzone=21,11 / fast_pskip=0 / chroma_qp_offset=-2 / threads=12 / lookahead_threads=3 / sliced_threads=0 / nr=0 / decimate=0 / interlaced=0 / bluray_compat=0 / constrained_intra=0 / fgo=0 / bframes=14 / b_pyramid=2 / b_adapt=2 / b_bias=0 / direct=3 / weightb=1 / open_gop=0 / weightp=2 / keyint=240 / keyint_min=23 / scenecut=40 / intra_refresh=0 / rc_lookahead=60 / rc=2pass / mbtree=0 / bitrate=1417 / ratetol=1.0 / qcomp=0.65 / qpmin=0:0:0 / qpmax=69:69:69 / qpstep=4 / cplxblur=20.0 / qblur=0.5 / vbv_maxrate=50000 / vbv_bufsize=62500 / nal_hrd=none / filler=0 / ip_ratio=1.40 / pb_ratio=1.30 / aq=3:0.90 / aq-sensitivity=10.00 / aq-factor=1.00:1.00:1.00 / aq2=0 / aq3=0
    Default : Да
    Forced : Нет
    Аудио
    Идентификатор : 2
    Формат : AC-3
    Формат/Информация : Audio Coding 3
    Расширение режима : CM (complete main)
    Параметр Endianness формата : Big
    Идентификатор кодека : A_AC3
    Продолжительность : 1 ч. 51 м.
    Вид битрейта : Постоянный
    Битрейт : 384 Кбит/сек
    Каналы : 6 каналов
    Расположение каналов : Front: L C R, Side: L R, LFE
    Частота : 48,0 КГц
    Частота кадров : 31,250 кадров/сек (1536 spf)
    Метод сжатия : С потерями
    Размер потока : 307 Мбайт (21%)
    Язык : Russian
    Default : Да
    Forced : Нет
    Текст
    Идентификатор : 3
    Формат : UTF-8
    Идентификатор кодека : S_TEXT/UTF8
    Идентификатор кодека/Информация : UTF-8 Plain Text
    Продолжительность : 1 ч. 45 м.
    Битрейт : 1 бит/сек
    Count of elements : 33
    Размер потока : 1,29 Кбайт (0%)
    Заголовок : Forced
    Язык : Russian
    Default : Да
    Forced : Нет
    Меню
    00:00:00.000 : en:Chapter 1
    00:07:46.466 : en:Chapter 2
    00:13:47.909 : en:Chapter 3
    00:23:38.834 : en:Chapter 4
    00:30:28.660 : en:Chapter 5
    00:37:27.036 : en:Chapter 6
    00:45:36.775 : en:Chapter 7
    00:55:40.586 : en:Chapter 8
    01:05:02.106 : en:Chapter 9
    01:12:14.454 : en:Chapter 10
    01:17:50.332 : en:Chapter 11
    01:24:56.006 : en:Chapter 12
    01:34:04.970 : en:Chapter 13
    01:39:50.650 : en:Chapter 14

    Скриншоты

    Скачать .torrent

    Скачать торрент-файл бесплатно и на максимальной скорости!

    Как скачивать? · Что такое торрент? · Рейтинг и ограничения

    !ВНИМАНИЕ!
    Сайт не распространяет и не хранит электронные версии произведений, а занимается лишь лишь предоставлением доступа к создаваемому пользователями каталогу ссылок на торрент-файлы, которые содержат только списки хеш-сумм, убедительная просьба с жалобами обращаться напрямую к пользователю. Файлы для обмена на трекере предоставлены пользователями сайта, и администрация не несёт ответственности за их содержание. Просьба не заливать файлы, защищенные авторскими правами, а также файлы нелегального содержания!


    _________________
    [Профиль] [ЛС]
    Показать сообщения:    
    Ответить на тему

    Текущее время: Сегодня, в 16:31

    Часовой пояс: GMT + 2



    Вы не можете начинать темы
    Вы не можете отвечать на сообщения
    Вы не можете редактировать свои сообщения
    Вы не можете удалять свои сообщения
    Вы не можете голосовать в опросах
    Вы не можете прикреплять файлы к сообщениям
    Вы не можете скачивать файлы