BitTorrentTracker PerecTracker.org
BitTorrentTracker PerecTracker.org
    
Регистрация  ·  Вход
 
 · 
Забыли пароль?

  • Синистер / Sinister (Скотт Дерриксон / Scott Derrickson) [2012, США, ужасы, детектив, BDRip-AVC] Dub + Sub Rus, Eng + Original Eng

    Ответить на тему
     
    Автор Сообщение

    Light

    Создавать темы 21-Июл-2016 12:55

           

    [Цитировать]

    Синистер / Sinister«Увидевший его не спасётся»-Страна: США
    Жанр: ужасы, детектив
    Год выпуска: 2012
    Продолжительность: 01:49:45-Перевод: Профессиональный (дублированный) (R5)
    Cубтитры: русские (полн.), английские (полн. SDH, SDH Colored)
    Оригинальная аудиодорожка: английский-Режиссер: Скотт Дерриксон / Scott Derrickson
    В ролях: Итан Хоук, Джульет Райлэнс, Фред Долтон Томпсон, Джеймс Рэнсон, Майкл Холл Д’Аддарио, Клер Фоли, Роб Райли, Тэвис Смайли, Джанет Заппала, Виктория Ли
    Описание: Вместе с семьей автор детективов поселяется в небольшом городке, в доме, где почти год назад развернулась леденящая душу трагедия — были убиты все жильцы. Писатель случайно находит видеозаписи, которые являются ключом к тайне преступления. Но ничто не дается даром: в доме начинают происходить жуткие вещи и теперь под угрозой жизнь его близких. Они столкнулись с чем-то, от чего нет спасения…--Качество видео: BDRip-AVC [BDRemux]
    Формат видео: MKV
    Видео: AVC, 1152*480 (2.40:1), 2909 kb/s, 23.976 fps, 0.219 bit/pixel
    Аудио 1: AC-3, 48.0 KHz, 448 Kbps, 5.1 ch [Rus]
    Аудио 2: AC-3, 48.0 KHz, 448 Kbps, 5.1 ch [Eng]
    Формат субтитров: softsub (SRT)

    MediaInfo

    General
    Unique ID : 215287685015096453994347398923419578834 (0xA1F6E66157D6C30D9C24B94F0D2EF1D2)
    Complete name : C:\Movie\Синистер (Sinister) 2012.mkv
    Format : Matroska
    Format version : Version 4 / Version 2
    File size : 2.92 GiB
    Duration : 1 h 49 min
    Overall bit rate : 3 806 kb/s
    Encoded date : UTC 2016-07-21 05:11:53
    Writing application : mkvmerge v9.2.0 ('Photograph') 32bit
    Writing library : libebml v1.3.3 + libmatroska v1.4.4
    Cover : Yes
    Attachments : cover.png
    Video
    ID : 1
    Format : AVC
    Format/Info : Advanced Video Codec
    Format profile : High@L4.1
    Format settings, CABAC : Yes
    Format settings, ReFrames : 8 frames
    Codec ID : V_MPEG4/ISO/AVC
    Duration : 1 h 49 min
    Bit rate : 2 909 kb/s
    Width : 1 152 pixels
    Height : 480 pixels
    Display aspect ratio : 2.40:1
    Frame rate mode : Constant
    Frame rate : 23.976 (24000/1001) FPS
    Color space : YUV
    Chroma subsampling : 4:2:0
    Bit depth : 8 bits
    Scan type : Progressive
    Bits/(Pixel*Frame) : 0.219
    Stream size : 2.23 GiB (76%)
    Writing library : x264 core 148 r2638 7599210
    Encoding settings : cabac=1 / ref=8 / deblock=1:-1:-1 / analyse=0x3:0x133 / me=umh / subme=10 / psy=1 / psy_rd=1.00:0.15 / mixed_ref=1 / me_range=24 / chroma_me=1 / trellis=2 / 8x8dct=1 / cqm=0 / deadzone=21,11 / fast_pskip=1 / chroma_qp_offset=-3 / threads=6 / lookahead_threads=1 / sliced_threads=0 / nr=0 / decimate=1 / interlaced=0 / bluray_compat=0 / constrained_intra=0 / bframes=8 / b_pyramid=2 / b_adapt=2 / b_bias=0 / direct=3 / weightb=1 / open_gop=0 / weightp=2 / keyint=240 / keyint_min=23 / scenecut=40 / intra_refresh=0 / rc_lookahead=60 / rc=2pass / mbtree=1 / bitrate=2909 / ratetol=1.0 / qcomp=0.60 / qpmin=0 / qpmax=69 / qpstep=4 / cplxblur=20.0 / qblur=0.5 / vbv_maxrate=62500 / vbv_bufsize=78125 / nal_hrd=none / filler=0 / ip_ratio=1.40 / aq=1:1.00
    Default : Yes
    Forced : No
    Audio #1
    ID : 2
    Format : AC-3
    Format/Info : Audio Coding 3
    Mode extension : CM (complete main)
    Format settings, Endianness : Big
    Codec ID : A_AC3
    Duration : 1 h 49 min
    Bit rate mode : Constant
    Bit rate : 448 kb/s
    Channel(s) : 6 channels
    Channel positions : Front: L C R, Side: L R, LFE
    Sampling rate : 48.0 kHz
    Frame rate : 31.250 FPS (1536 spf)
    Compression mode : Lossy
    Stream size : 352 MiB (12%)
    Title : Dub
    Language : Russian
    Default : Yes
    Forced : No
    Audio #2
    ID : 3
    Format : AC-3
    Format/Info : Audio Coding 3
    Mode extension : CM (complete main)
    Format settings, Endianness : Big
    Codec ID : A_AC3
    Duration : 1 h 49 min
    Bit rate mode : Constant
    Bit rate : 448 kb/s
    Channel(s) : 6 channels
    Channel positions : Front: L C R, Side: L R, LFE
    Sampling rate : 48.0 kHz
    Frame rate : 31.250 FPS (1536 spf)
    Compression mode : Lossy
    Stream size : 352 MiB (12%)
    Title : Original
    Language : English
    Default : No
    Forced : No
    Text #1
    ID : 4
    Format : UTF-8
    Codec ID : S_TEXT/UTF8
    Codec ID/Info : UTF-8 Plain Text
    Duration : 1 h 41 min
    Bit rate : 76 b/s
    Count of elements : 742
    Stream size : 56.9 KiB (0%)
    Title : Full
    Language : Russian
    Default : No
    Forced : No
    Text #2
    ID : 5
    Format : UTF-8
    Codec ID : S_TEXT/UTF8
    Codec ID/Info : UTF-8 Plain Text
    Duration : 1 h 37 min
    Bit rate : 50 b/s
    Count of elements : 791
    Stream size : 35.8 KiB (0%)
    Title : Full
    Language : English
    Default : No
    Forced : No
    Text #3
    ID : 6
    Format : UTF-8
    Codec ID : S_TEXT/UTF8
    Codec ID/Info : UTF-8 Plain Text
    Duration : 1 h 38 min
    Bit rate : 50 b/s
    Count of elements : 842
    Stream size : 36.6 KiB (0%)
    Title : SDH
    Language : English
    Default : No
    Forced : No
    Text #4
    ID : 7
    Format : UTF-8
    Codec ID : S_TEXT/UTF8
    Codec ID/Info : UTF-8 Plain Text
    Duration : 1 h 38 min
    Bit rate : 53 b/s
    Count of elements : 842
    Stream size : 38.7 KiB (0%)
    Title : SDH Colored
    Language : English
    Default : No
    Forced : No
    Menu
    00:00:00.000 : en:Chapter 00
    00:10:40.556 : en:Chapter 01
    00:19:05.310 : en:Chapter 02
    00:27:08.168 : en:Chapter 03
    00:36:58.507 : en:Chapter 04
    00:46:35.334 : en:Chapter 05
    00:56:30.095 : en:Chapter 06
    01:07:13.362 : en:Chapter 07
    01:17:03.702 : en:Chapter 08
    01:26:15.753 : en:Chapter 09
    01:33:34.567 : en:Chapter 10
    01:43:08.098 : en:Chapter 11

    Скриншоты

    -
    Скачать .torrent

    Скачать торрент-файл бесплатно и на максимальной скорости!

    Как скачивать? · Что такое торрент? · Рейтинг и ограничения

    !ВНИМАНИЕ!
    Сайт не распространяет и не хранит электронные версии произведений, а занимается лишь лишь предоставлением доступа к создаваемому пользователями каталогу ссылок на торрент-файлы, которые содержат только списки хеш-сумм, убедительная просьба с жалобами обращаться напрямую к пользователю. Файлы для обмена на трекере предоставлены пользователями сайта, и администрация не несёт ответственности за их содержание. Просьба не заливать файлы, защищенные авторскими правами, а также файлы нелегального содержания!


    _________________
    [Профиль] [ЛС]
    Показать сообщения:    
    Ответить на тему

    Текущее время: Сегодня, в 20:29

    Часовой пояс: GMT + 2



    Вы не можете начинать темы
    Вы не можете отвечать на сообщения
    Вы не можете редактировать свои сообщения
    Вы не можете удалять свои сообщения
    Вы не можете голосовать в опросах
    Вы не можете прикреплять файлы к сообщениям
    Вы не можете скачивать файлы