BitTorrentTracker PerecTracker.org
BitTorrentTracker PerecTracker.org
    
Регистрация  ·  Вход
 
 · 
Забыли пароль?

  • Что уже может случиться?! / Ma Kvar Yachol Likrot?! (Офир Лобель / Ofir Lobel) [2015, Израиль, Комедия, HDTVRip] Sub Rus + Original Heb

    Ответить на тему
     
    Автор Сообщение

    Light

    Создавать темы 21-Июл-2016 12:55

           

    [Цитировать]

    Что уже может случиться?! / Ma Kvar Yachol Likrot?!
    Страна: Израиль
    Жанр: Комедия
    Год выпуска: 2015
    Продолжительность: 01:23:04
    Перевод: Субтитры
    Cубтитры: русские, иврит
    Оригинальная аудиодорожка: иврит
    Режиссер: Офир Лобел / Ofir Lobel
    В ролях: Илан Ковач, Лиор Дувдевани, Рами Хойбергер, Гури Альфи, Офер Шехтер
    Описание: Два 30-летних друга-лузера - Илан Ковач и Лиор Дувдевани, играющие самих себя - неожиданно обнаруживают, что выиграли миллион. Ночь перед получением выигрыша становится самой ужасной в жизни: всю ночь их преследует безумец, пытающийся любой ценой завладеть миллионом.
    Доп. информация:
    Сэмпл: http://www.mediafire.com/download/bitsso16vvaypto/Sample_Ma.Kvar.Yachol.Likrot.avi
    Качество видео: HDTVRip
    Формат видео: AVI
    Видео: XviD 624х352 16:9 25 кадров/сек 1038 Кбит/сек
    Аудио: MP3 48 КГц 2 канала 128 Кбит/сек
    Формат субтитров: softsub (ASS)
    Доп. информация о субтитрах: русские: softsub, ASS; иврит: hardsub

    Образец субтитров

    Dialogue: 0,0:03:02.50,0:03:05.81,Default,,0,0,0,,Но давайте вернёмся на несколько лет назад,\Nк моменту, когда всё начиналось.
    Dialogue: 0,0:03:05.82,0:03:10.82,Default,,0,0,0,,Илан Ковач был толстеньким, отвергнутым\Nмальчиком, любившим кушать... всё подряд.
    Dialogue: 0,0:03:10.94,0:03:13.29,Default,,0,0,0,,И, вопреки своему низкому положению\Nв цепочке питания,
    Dialogue: 0,0:03:13.30,0:03:17.77,Default,,0,0,0,,он влюбился в девочку,\Nсамую красивую в классе, Анат Блайхер.
    Dialogue: 0,0:03:17.78,0:03:19.69,Default,,0,0,0,,Внутренний голос в мозгу юного Ковача
    Dialogue: 0,0:03:19.70,0:03:24.70,Default,,0,0,0,,побуждал его взять на себя инициативу\Nи следовать за сердцем без страха...
    Dialogue: 0,0:03:28.26,0:03:33.26,Default,,0,0,0,,что, как выяснилось, было большой ошибкой.
    Dialogue: 0,0:03:33.78,0:03:36.65,Default,,0,0,0,,Но тогда в классе появилось звено\Nещё более слабое, чем он.
    Dialogue: 0,0:03:36.66,0:03:41.13,Default,,0,0,0,,Здравствуй. Это - наш новый ученик.\NКак тебя зовут, милый?
    Dialogue: 0,0:03:41.14,0:03:44.53,Default,,0,0,0,,Лиор Дувдевани был известен под прозвищем\NДувдевани - Воздушный Змей...
    Dialogue: 0,0:03:44.54,0:03:46.01,Default,,0,0,0,,Я здесь, я здесь!
    Dialogue: 0,0:03:46.02,0:03:48.33,Default,,0,0,0,,Или Дувдевани-Сосиска...
    Dialogue: 0,0:03:48.34,0:03:51.61,Default,,0,0,0,,Или Дувдевани-фраер,\Nкоторый всегда что-нибудь разбивает.
    Dialogue: 0,0:03:51.62,0:03:53.49,Default,,0,0,0,,Ты можешь уже сказать классу,\Nкак зовут тебя?
    Dialogue: 0,0:03:53.50,0:03:58.50,Default,,0,0,0,,К его счастью, когда он пришёл в новый класс,\Nу него ещё не было прозвища.
    Dialogue: 0,0:03:58.53,0:04:04.70,Default,,0,0,0,,С того момента эти двое стали неразлучны.
    Dialogue: 0,0:04:04.74,0:04:07.97,Default,,0,0,0,,Первое, что они сделали вместе,\Nбыл взлом школьного сейфа
    Dialogue: 0,0:04:07.98,0:04:12.31,Default,,0,0,0,,и кража денег на подарок девочке,\Nв которую Ковач был влюблён...
    Dialogue: 0,0:04:12.41,0:04:15.98,Default,,0,0,0,,8 кило мороженого, ванильного и мокко.
    Dialogue: 0,0:04:16.46,0:04:20.05,Default,,0,0,0,,Но это не сработало.
    Dialogue: 0,0:04:20.06,0:04:22.17,Default,,0,0,0,,И вместо того, чтобы добиваться сердца\NАнат Блайхер,
    Dialogue: 0,0:04:22.18,0:04:25.93,Default,,0,0,0,,они оба были вынуждены работать в течение года,\Nубирая мусор в школе.
    Dialogue: 0,0:04:25.94,0:04:29.25,Default,,0,0,0,,Тогда же они решили,\Nчто никогда не расстанутся друг с другом,
    Dialogue: 0,0:04:29.26,0:04:31.93,Default,,0,0,0,,и что отныне они будут стойко переносить\Nтравмы детства,
    Dialogue: 0,0:04:31.94,0:04:35.57,Default,,0,0,0,,а потом подняться по карьерной\Nлестнице, как можно выше.
    Dialogue: 0,0:04:35.58,0:04:38.54,Default,,0,0,0,,Но и это не сработало.

    MediaInfo

    Общее
    Полное имя : Ma Kvar Yachol Likrot.avi
    Формат : AVI
    Формат/Информация : Audio Video Interleave
    Размер файла : 700 Мбайт
    Продолжительность : 1 ч. 23 м.
    Режим общего битрейта : Переменный
    Общий поток : 1178 Кбит/сек
    Программа кодирования : VirtualDubMod 1.5.10.2 (build 2540/release)
    Библиотека кодирования : VirtualDubMod build 2540/release
    Видео
    Идентификатор : 0
    Формат : MPEG-4 Visual
    Профиль формата : Advanced Simple@L5
    Параметр BVOP формата : 2
    Параметр QPel формата : Нет
    Параметр GMC формата : Без точки перехода
    Параметр матрицы формата : Default (H.263)
    Идентификатор кодека : XVID
    Идентификатор кодека/Подсказка : XviD
    Продолжительность : 1 ч. 23 м.
    Битрейт : 1038 Кбит/сек
    Ширина : 624 пикселя
    Высота : 352 пикселя
    Соотношение сторон : 16:9
    Частота кадров : 25,000 кадров/сек
    Цветовое пространство : YUV
    Субдискретизация насыщенности : 4:2:0
    Битовая глубина : 8 бит
    Тип развёртки : Чересстрочная
    Порядок развёртки : Нижнее поле первое
    Метод сжатия : С потерями
    Бит/(Пиксели*Кадры) : 0.189
    Размер потока : 616 Мбайт (88%)
    Библиотека кодирования : XviD 64
    Аудио
    Идентификатор : 1
    Формат : MPEG Audio
    Версия формата : Version 1
    Профиль формата : Layer 3
    Режим : Joint stereo
    Расширение режима : MS Stereo
    Идентификатор кодека : 55
    Идентификатор кодека/Подсказка : MP3
    Продолжительность : 1 ч. 23 м.
    Вид битрейта : Переменный
    Битрейт : 128 Кбит/сек
    Каналы : 2 канала
    Частота : 48,0 КГц
    Метод сжатия : С потерями
    Размер потока : 75,8 Мбайт (11%)
    Выравнивание : Соединение по промежуткам
    Продолжительность промежутка : 24 мс. (0,60 видеокадр)
    Время предзагрузки промежутка : 520 мс.
    Библиотека кодирования : LAME3.90.
    Настройки программы : -m j -V 4 -q 2 -lowpass 17.6 --abr 128

    Скриншот c названием фильма

    Скриншоты





    Скачать .torrent

    Скачать торрент-файл бесплатно и на максимальной скорости!

    Как скачивать? · Что такое торрент? · Рейтинг и ограничения

    !ВНИМАНИЕ!
    Сайт не распространяет и не хранит электронные версии произведений, а занимается лишь лишь предоставлением доступа к создаваемому пользователями каталогу ссылок на торрент-файлы, которые содержат только списки хеш-сумм, убедительная просьба с жалобами обращаться напрямую к пользователю. Файлы для обмена на трекере предоставлены пользователями сайта, и администрация не несёт ответственности за их содержание. Просьба не заливать файлы, защищенные авторскими правами, а также файлы нелегального содержания!


    _________________
    [Профиль] [ЛС]
    Показать сообщения:    
    Ответить на тему

    Текущее время: Сегодня, в 08:03

    Часовой пояс: GMT + 2



    Вы не можете начинать темы
    Вы не можете отвечать на сообщения
    Вы не можете редактировать свои сообщения
    Вы не можете удалять свои сообщения
    Вы не можете голосовать в опросах
    Вы не можете прикреплять файлы к сообщениям
    Вы не можете скачивать файлы