BitTorrentTracker PerecTracker.org
BitTorrentTracker PerecTracker.org
    
Регистрация  ·  Вход
 
 · 
Забыли пароль?

  • То, что надо! / Hunky Dory (Марк Эванс / Mark Evans) [2011, Великобритания, Драма, комедия, музыкальный, HDRip] Sub Rus + Original Eng

    Ответить на тему
     
    Автор Сообщение

    Light

    Создавать темы 21-Июл-2016 08:46

           

    [Цитировать]

    То, что надо! / Hunky Dory
    Страна: Великобритания
    Жанр: Драма, комедия, музыкальный
    Год выпуска: 2011
    Продолжительность: 01:49:59
    Перевод: Субтитры
    Cубтитры: русские
    Оригинальная аудиодорожка: английский
    Режиссер: Марк Эванс
    В ролях: Минни Драйвер, Кристиан Гвильям, Анейрин Барнард, Том Рис Харрис, Адам Байард, Даниэль Бренч, Кимберли Никсон, Кейлай Беннетт, Даррен Эванс, Дэфидд Ллир-Томас
    Описание: Действие фильма разворачивается в 70-х годах в уэльской общеобразовательной школе. Главная героиня, школьная учительница, пытается превозмочь безразличие подростков, и поставить на школьной сцене музыкальную версию «Бури» Шекспира в жанре рок-н-ролла, которой бы мог гордиться сам Дэвид Боуи. Чтобы увлечь учеников, она решает использовать в постановке хиты 70-х.
    Сэмпл: https://yadi.sk/d/m_n8lEJ4tTvt8
    Качество видео: HDRip
    Формат видео: MP4
    Видео: MPEG-4 AVC, 939 Кбит/с, 1280x544
    Аудио: Английский (AAC, 2 ch, 94 Кбит/с)
    Формат субтитров: softsub (SRT)

    MediaInfo

    Общее
    Полное имя : F:\!КИНО\Hunky Dory (2011)\Hunky.Dory.2011.720p.BluRay.x264.YIFY.mp4
    Формат : MPEG-4
    Профиль формата : Base Media
    Идентификатор кодека : isom (isom/avc1)
    Размер файла : 816 Мбайт
    Продолжительность : 1 ч. 49 м.
    Режим общего битрейта : Переменный
    Общий поток : 1037 Кбит/сек
    Дата кодирования : UTC 2014-03-31 06:43:27
    Дата пометки : UTC 2014-03-31 06:43:27
    Видео
    Идентификатор : 1
    Формат : AVC
    Формат/Информация : Advanced Video Codec
    Профиль формата : High@L4.1
    Параметр CABAC формата : Да
    Параметр ReFrames формата : 4 кадра
    Идентификатор кодека : avc1
    Идентификатор кодека/Информация : Advanced Video Coding
    Продолжительность : 1 ч. 49 м.
    Битрейт : 939 Кбит/сек
    Максимальный битрейт : 5973 Кбит/сек
    Ширина : 1280 пикселей
    Высота : 544 пикселя
    Соотношение сторон : 2,35:1
    Режим частоты кадров : Постоянный
    Частота кадров : 24,000 кадра/сек
    Цветовое пространство : YUV
    Субдискретизация насыщенности : 4:2:0
    Битовая глубина : 8 бит
    Тип развёртки : Прогрессивная
    Бит/(Пиксели*Кадры) : 0.056
    Размер потока : 739 Мбайт (91%)
    Библиотека кодирования : x264 core 135 r2 f0c1c53
    Настройки программы : cabac=1 / ref=4 / deblock=1:-1:-1 / analyse=0x3:0x133 / me=umh / subme=9 / psy=1 / psy_rd=1.00:0.15 / mixed_ref=1 / me_range=24 / chroma_me=1 / trellis=2 / 8x8dct=1 / cqm=0 / deadzone=21,11 / fast_pskip=0 / chroma_qp_offset=-3 / threads=36 / lookahead_threads=3 / sliced_threads=0 / nr=0 / decimate=1 / interlaced=0 / bluray_compat=0 / constrained_intra=0 / bframes=3 / b_pyramid=2 / b_adapt=2 / b_bias=0 / direct=3 / weightb=1 / open_gop=0 / weightp=2 / keyint=250 / keyint_min=24 / scenecut=40 / intra_refresh=0 / rc_lookahead=60 / rc=2pass / mbtree=1 / bitrate=939 / ratetol=1.0 / qcomp=0.60 / qpmin=0 / qpmax=69 / qpstep=4 / cplxblur=20.0 / qblur=0.5 / vbv_maxrate=31250 / vbv_bufsize=31250 / nal_hrd=none / ip_ratio=1.40 / aq=1:1.00
    Дата кодирования : UTC 2014-03-31 06:43:27
    Дата пометки : UTC 2014-03-31 06:43:38
    Цветовой диапазон : Limited
    Основные цвета : BT.709
    Коэффициенты матрицы : BT.709
    Аудио
    Идентификатор : 2
    Формат : AAC
    Формат/Информация : Advanced Audio Codec
    Профиль формата : LC
    Идентификатор кодека : 40
    Продолжительность : 1 ч. 49 м.
    Вид битрейта : Переменный
    Битрейт : 93,8 Кбит/сек
    Максимальный битрейт : 101 Кбит/сек
    Каналы : 2 канала
    Расположение каналов : Front: L R
    Частота : 48,0 КГц
    Частота кадров : 46,875 кадров/сек (1024 spf)
    Метод сжатия : С потерями
    Размер потока : 73,8 Мбайт (9%)
    Язык : English
    Дата кодирования : UTC 2014-03-31 06:43:37
    Дата пометки : UTC 2014-03-31 06:43:38

    Скриншоты

    Фрагмент субтитров

    127
    00:09:20,101 --> 00:09:21,966
    Пап, тут ни одной чистой футболки.
    128
    00:09:22,187 --> 00:09:24,052
    Твоей бабуси поблизости нет, правда?
    129
    00:09:24,272 --> 00:09:28,015
    — Ага, ммм, я пойду сегодня на свидание...
    — Слушай, распыли чуток брюта.
    130
    00:09:28,193 --> 00:09:31,481
    — Всегда работает.
    — Отлично.
    131
    00:09:31,738 --> 00:09:36,198
    - Мама мне одну постирает.
    - Да ты в любом случае
    132
    00:09:36,409 --> 00:09:38,365
    можешь открывать свою прачечную.
    133
    00:09:41,039 --> 00:09:43,781
    Эй, иди сюда.
    134
    00:09:43,958 --> 00:09:46,324
    Тебе нужно найти пузырь.
    135
    00:09:46,544 --> 00:09:48,910
    Вот, вот он...
    136
    00:09:49,714 --> 00:09:52,751
    Я думал, ты говорил, мама к этому времени вернется.
    137
    00:10:03,436 --> 00:10:04,972
    Алло. Свонси, 6527.
    138
    00:10:05,188 --> 00:10:08,055
    — Стелла. Это Дэйви.
    — О, привет, Дэйви!
    139
    00:10:08,274 --> 00:10:10,981
    Привет. Что делаешь?
    140
    00:10:11,236 --> 00:10:14,945
    Ничего, а ты?
    141
    00:10:15,115 --> 00:10:18,778
    Ничего. Где ты была днем?
    142
    00:10:18,993 --> 00:10:21,826
    Ходила к бассейну освежиться.
    143
    00:10:22,038 --> 00:10:24,029
    А предполагалось, ты будешь на репетиции.
    144
    00:10:24,249 --> 00:10:25,705
    Ага, в пятницу.
    145
    00:10:28,002 --> 00:10:32,120
    Что ж, гм... все еще хочешь встретиться вечером?
    146
    00:10:32,340 --> 00:10:36,674
    — Нет, я... я не могу.
    — Стелла. Пожалуйста?
    147
    00:10:36,886 --> 00:10:38,751
    Слушай, мы говорили, что собираемся быть друзьями.
    Скачать .torrent

    Скачать торрент-файл бесплатно и на максимальной скорости!

    Как скачивать? · Что такое торрент? · Рейтинг и ограничения

    !ВНИМАНИЕ!
    Сайт не распространяет и не хранит электронные версии произведений, а занимается лишь лишь предоставлением доступа к создаваемому пользователями каталогу ссылок на торрент-файлы, которые содержат только списки хеш-сумм, убедительная просьба с жалобами обращаться напрямую к пользователю. Файлы для обмена на трекере предоставлены пользователями сайта, и администрация не несёт ответственности за их содержание. Просьба не заливать файлы, защищенные авторскими правами, а также файлы нелегального содержания!


    _________________
    [Профиль] [ЛС]
    Показать сообщения:    
    Ответить на тему

    Текущее время: Сегодня, в 06:18

    Часовой пояс: GMT + 2



    Вы не можете начинать темы
    Вы не можете отвечать на сообщения
    Вы не можете редактировать свои сообщения
    Вы не можете удалять свои сообщения
    Вы не можете голосовать в опросах
    Вы не можете прикреплять файлы к сообщениям
    Вы не можете скачивать файлы