BitTorrentTracker PerecTracker.org
BitTorrentTracker PerecTracker.org
    
Регистрация  ·  Вход
 
 · 
Забыли пароль?

  • Убежать, догнать, влюбиться (Михаил Шевчук) [2016, Комедия, мелодрама, WEB-DLRip]

    Ответить на тему
     
    Автор Сообщение

    Flirldrerve

    Создавать темы 20-Июл-2016 22:41

           

    [Цитировать]

    Убежать, догнать, влюбиться!
    Жанр: мелодрама, комедия
    Год выпуска: 2016
    Продолжительность: 01:18:58
    Режиссер: Михаил Шевчук
    В ролях: Константин Крюков, Любовь Аксёнова, Владимир Этуш, Юсуп Омаров, Юлика Вагнер, Владимир Зельдин, Эрик Яралов, Маргарита Крамерова, Мария Кудрявцева, Марина Губина, Александр Резалин
    Описание: Борис сбегает от своей австрийской невесты на Северный Кавказ, где по воле случая становится учителем музыки для местной девушки Нины. Нина не хочет выходить замуж за жениха, найденного отцом, и всеми силами пытается оттянуть свадьбу. В этом ей помогает Борис: он решает украсть Нину по местному обычаю, и теперь они вынуждены скрываться не только от ее жениха, но и от внезапно прилетевшей невесты Бориса.
    Сэмпл: http://multi-up.com/1110709
    Качество видео: WEB-DLRip
    Исходник: [Ybezhatj.dognatj.vlubitsjya.2O16.O.WEBDL.720p]
    Формат видео: AVI
    Видео: 720x304 (2.37:1), 25 fps, XviD build 65 ~2352 kbps avg, 0.43 bit/pixel
    Audio: 48 kHz, AC3 Dolby Digital, 2/0 (L,R) ch, ~192 kbps - iTunes

    Rip by Ториял

    MediaInfo

    General
    Complete name : D:\Фильмы\Ybezat_gonat_vlubitsya_2016_Toriyal_Rutracker.avi
    Format : AVI
    Format/Info : Audio Video Interleave
    File size : 1.41 GiB
    Duration : 1h 18mn
    Overall bit rate : 2 555 Kbps
    Writing application : VirtualDubMod 1.5.10.3 | www.virtualdub-fr.org || (build 2550/release)
    Writing library : VirtualDubMod build 2550/release
    Video
    ID : 0
    Format : MPEG-4 Visual
    Format profile : Advanced Simple@L5
    Format settings, BVOP : 1
    Format settings, QPel : No
    Format settings, GMC : No warppoints
    Format settings, Matrix : Custom
    Codec ID : XVID
    Codec ID/Hint : XviD
    Duration : 1h 18mn
    Bit rate : 2 353 Kbps
    Width : 720 pixels
    Height : 304 pixels
    Display aspect ratio : 2.35:1
    Frame rate : 25.000 fps
    Color space : YUV
    Chroma subsampling : 4:2:0
    Bit depth : 8 bits
    Scan type : Progressive
    Compression mode : Lossy
    Bits/(Pixel*Frame) : 0.430
    Stream size : 1.30 GiB (92%)
    Writing library : XviD 65
    Audio
    ID : 1
    Format : AC-3
    Format/Info : Audio Coding 3
    Mode extension : CM (complete main)
    Format settings, Endianness : Big
    Codec ID : 2000
    Duration : 1h 18mn
    Bit rate mode : Constant
    Bit rate : 192 Kbps
    Channel(s) : 2 channels
    Channel positions : Front: L R
    Sampling rate : 48.0 KHz
    Frame rate : 31.250 fps (1536 spf)
    Compression mode : Lossy
    Stream size : 108 MiB (8%)
    Alignment : Split accross interleaves
    Interleave, duration : 40 ms (1.00 video frame)
    Interleave, preload duratio : 500 ms

    Скриншоты

    Скачать .torrent

    Скачать торрент-файл бесплатно и на максимальной скорости!

    Как скачивать? · Что такое торрент? · Рейтинг и ограничения

    !ВНИМАНИЕ!
    Сайт не распространяет и не хранит электронные версии произведений, а занимается лишь лишь предоставлением доступа к создаваемому пользователями каталогу ссылок на торрент-файлы, которые содержат только списки хеш-сумм, убедительная просьба с жалобами обращаться напрямую к пользователю. Файлы для обмена на трекере предоставлены пользователями сайта, и администрация не несёт ответственности за их содержание. Просьба не заливать файлы, защищенные авторскими правами, а также файлы нелегального содержания!


    _________________
    [Профиль] [ЛС]
    Показать сообщения:    
    Ответить на тему

    Текущее время: Сегодня, в 15:37

    Часовой пояс: GMT + 2



    Вы не можете начинать темы
    Вы не можете отвечать на сообщения
    Вы не можете редактировать свои сообщения
    Вы не можете удалять свои сообщения
    Вы не можете голосовать в опросах
    Вы не можете прикреплять файлы к сообщениям
    Вы не можете скачивать файлы