BitTorrentTracker PerecTracker.org
BitTorrentTracker PerecTracker.org
    
Регистрация  ·  Вход
 
 · 
Забыли пароль?

  • Джек Стоун / Бунт / Riot (Джон Лойд / John Lyde) [2015, США, Боевик, HDRip] MVO (R5)

    Ответить на тему
     
    Автор Сообщение

    Light

    Создавать темы 20-Июл-2016 22:41

           

    [Цитировать]

    Джек Стоун / Бунт / Riot
    Страна: США
    Жанр: Боевик
    Год выпуска: 2015
    Продолжительность: 01:27:19
    Перевод: Профессиональный (многоголосый закадровый) R5
    Cубтитры: нет
    Оригинальная аудиодорожка: нет
    Режиссер: Джон Лойд / John Lyde
    В ролях: Мэттью Риз, Дольф Лундгрен, Даниэль Чакран, Чак Лиделл, Рен Барнс, Дуй Бек, Никита Боголюбов, Барбара Кросс, Пит Дэй
    Описание: Джек Стоун целенаправленно организовывает ограбление банка, чтобы попасть в тюрьму к пресловутому российскому вору в законе, Баламу. Балам является больше, чем обычный преступник; он очень хитрый и опасный авторитет, который контролирует полицию из-за решетки. Он живет за решеткой в качестве прикрытия для своей реальной власти. Его камера — это роскошная отдельная комната, которая создана специально для него и недоступна для большинства заключенных. Даже смотритель тюрьмы опасается, приближаясь к его камере. Тем не менее, даже в окружении своих верных приспешников и охранников, Балам не знает что Джек идет за ним, чтобы отомстить за убитую семью…
    Сэмпл: http://multi-up.com/1110525
    Качество видео: HDRip (исходник не известен)
    Формат видео: AVI
    Видео: 720x400 (1.80:1), 25 fps, XviD build 50 ~1942 kbps avg, 0.27 bit/pixel
    Аудио: 48 kHz, AC3 Dolby Digital, 2/0 (L,R) ch, ~384 kbps

    MediaInfo

    Format : AVI
    Format/Info : Audio Video Interleave
    File size : 1.37 GiB
    Duration : 1 h 23 min
    Overall bit rate : 2 337 kb/s
    Writing application : VirtualDubMod 1.5.10.2 (build 2540/release)
    Writing library : VirtualDubMod build 2540/release
    Video
    ID : 0
    Format : MPEG-4 Visual
    Format profile : Advanced Simple@L5
    Format settings, BVOP : 2
    Format settings, QPel : No
    Format settings, GMC : No warppoints
    Format settings, Matrix : Default (MPEG)
    Codec ID : XVID
    Codec ID/Hint : XviD
    Duration : 1 h 23 min
    Bit rate : 1 943 kb/s
    Width : 720 pixels
    Height : 400 pixels
    Display aspect ratio : 16:9
    Frame rate : 25.000 FPS
    Color space : YUV
    Chroma subsampling : 4:2:0
    Bit depth : 8 bits
    Scan type : Progressive
    Compression mode : Lossy
    Bits/(Pixel*Frame) : 0.270
    Stream size : 1.14 GiB (83%)
    Writing library : XviD 1.2.1 (UTC 2008-12-04)
    Audio
    ID : 1
    Format : AC-3
    Format/Info : Audio Coding 3
    Mode extension : CM (complete main)
    Format settings, Endianness : Big
    Codec ID : 2000
    Duration : 1 h 23 min
    Bit rate mode : Constant
    Bit rate : 384 kb/s
    Channel(s) : 2 channels
    Channel positions : Front: L R
    Sampling rate : 48.0 kHz
    Frame rate : 31.250 FPS (1536 spf)
    Compression mode : Lossy
    Stream size : 230 MiB (16%)
    Alignment : Split accross interleaves
    Interleave, duration : 40 ms (1.00 video frame)
    Interleave, preload duration : 500 ms

    Скриншот c названием фильма

    Скриншоты

    Скачать .torrent

    Скачать торрент-файл бесплатно и на максимальной скорости!

    Как скачивать? · Что такое торрент? · Рейтинг и ограничения

    !ВНИМАНИЕ!
    Сайт не распространяет и не хранит электронные версии произведений, а занимается лишь лишь предоставлением доступа к создаваемому пользователями каталогу ссылок на торрент-файлы, которые содержат только списки хеш-сумм, убедительная просьба с жалобами обращаться напрямую к пользователю. Файлы для обмена на трекере предоставлены пользователями сайта, и администрация не несёт ответственности за их содержание. Просьба не заливать файлы, защищенные авторскими правами, а также файлы нелегального содержания!


    _________________
    [Профиль] [ЛС]
    Показать сообщения:    
    Ответить на тему

    Текущее время: Сегодня, в 13:03

    Часовой пояс: GMT + 2



    Вы не можете начинать темы
    Вы не можете отвечать на сообщения
    Вы не можете редактировать свои сообщения
    Вы не можете удалять свои сообщения
    Вы не можете голосовать в опросах
    Вы не можете прикреплять файлы к сообщениям
    Вы не можете скачивать файлы