BitTorrentTracker PerecTracker.org
BitTorrentTracker PerecTracker.org
    
Регистрация  ·  Вход
 
 · 
Забыли пароль?

  • Очень странные дела / Крайне странные события / Stranger Things / Сезон: 1 / Серии: 1-8 из 8 (Мэтт Даффер, Росс Даффер, Шон Леви) [2016, Ужасы, триллер, драма, WEBRip 720p] MVO (Jaskier) + Original

    Ответить на тему
     
    Автор Сообщение

    rechyn

    Создавать темы 20-Июл-2016 20:28

           

    [Цитировать]

    Крайне странные события / Stranger Things-Оригинальное название: Stranger Things
    Русское название: Крайне странные события
    Год выпуска: 2016
    Страна: США
    Жанр: Ужасы, триллер, драма
    Продолжительность: ~55 мин.-Перевод: Профессиональный (многоголосый закадровый) Студия Jaskier
    Субтитры: Есть (английские)-Режиссёр: Мэтт Даффер, Росс Даффер, Шон Леви-В ролях: Вайнона Райдер, Дэвид Харбор, Кара Буоно, Милли Бобби Браун, Наталия Дайер, Чарли Хитон, Калеб МакЛафлин, Ной Шнапп и др.-Описание: Главное действие нового телевизионного сериала разворачивается в 80-х годах на территории тихого провинциального города. Благоприятное течение местной жизни нарушает загадочное исчезновение подростка по имени Уилл. Выяснить обстоятельства дела, полны решимости родные мальчика и местный шериф. Также события затрагивают лучшего друга Уилла – Майка. Он начинает собственное расследование. Теперь Майк уверен, что близок к разгадке, однако для этого ему предстоит оказаться в эпицентре ожесточенной битвы потусторонних сил.-Сэмпл-Качество: WEBRip 720p
    Формат: MKV
    Видео кодек: h.264
    Аудио кодек: AC3
    Видео: AVC, 1280x640 (2:1), 23.976 fps, ~4000 kbps, ~0.204 bit/pixel-Аудио 1: Dolby AC3 48000Hz 6ch 384Kbps Русский
    Аудио 2: Dolby AC3 48000Hz 6ch 384Kbps Оригинал (Английский)-

    MediaInfo

    General
    Unique ID                   : 232748171481580840638186790373692992043 (0xAF19AAD3E55B2AA5BF4371DA03A6EA2B)
    Complete name               : Z:\HD\Stranger Things. Season 1 (WEBRip l 720p l Jaskier)\Stranger.Things.S01E01.Chapter.One.The.Vanishing.Of.Will.Byers.720p.NF.WEBRip.DD5.1.x264-Jaskier.mkv
    Format                      : Matroska
    Format version              : Version 1
    File size                   : 1.64 GiB
    Duration                    : 48mn 16s
    Overall bit rate            : 4 876 Kbps
    Encoded date                : UTC 2016-07-18 07:55:22
    Writing application         : mkvmerge v2.3.0 ('Freak U') built on Sep  8 2008 18:32:16
    Writing library             : libebml v0.7.7 + libmatroska v0.8.1
    Video
    ID                          : 1
    Format                      : AVC
    Format/Info                 : Advanced Video Codec
    Format profile              : High@L4.1
    Format settings, CABAC      : Yes
    Format settings, ReFrames   : 10 frames
    Codec ID                    : V_MPEG4/ISO/AVC
    Duration                    : 48mn 16s
    Bit rate                    : 4 011 Kbps
    Width                       : 1 280 pixels
    Height                      : 640 pixels
    Display aspect ratio        : 2.000
    Frame rate mode             : Constant
    Frame rate                  : 23.976 fps
    Color space                 : YUV
    Chroma subsampling          : 4:2:0
    Bit depth                   : 8 bits
    Scan type                   : Progressive
    Bits/(Pixel*Frame)          : 0.204
    Stream size                 : 1.35 GiB (82%)
    Writing library             : x264 core 144 r2525 40bb568
    Encoding settings           : cabac=1 / ref=10 / deblock=1:-3:-3 / analyse=0x3:0x133 / me=umh / subme=10 / psy=1 / psy_rd=1.00:0.00 / mixed_ref=1 / me_range=48 / chroma_me=1 / trellis=2 / 8x8dct=1 / cqm=0 / deadzone=21,11 / fast_pskip=1 / chroma_qp_offset=-2 / threads=12 / lookahead_threads=2 / sliced_threads=0 / nr=0 / decimate=1 / interlaced=0 / bluray_compat=0 / constrained_intra=0 / bframes=8 / b_pyramid=2 / b_adapt=2 / b_bias=0 / direct=3 / weightb=1 / open_gop=0 / weightp=2 / keyint=250 / keyint_min=23 / scenecut=40 / intra_refresh=0 / rc=crf / mbtree=0 / crf=18.0 / qcomp=0.60 / qpmin=0 / qpmax=69 / qpstep=4 / ip_ratio=1.30 / pb_ratio=1.20 / aq=3:0.80
    Language                    : English
    Default                     : Yes
    Forced                      : No
    Audio #1
    ID                          : 2
    Format                      : AC-3
    Format/Info                 : Audio Coding 3
    Mode extension              : CM (complete main)
    Format settings, Endianness : Big
    Codec ID                    : A_AC3
    Duration                    : 48mn 16s
    Bit rate mode               : Constant
    Bit rate                    : 384 Kbps
    Channel(s)                  : 6 channels
    Channel positions           : Front: L C R, Side: L R, LFE
    Sampling rate               : 48.0 KHz
    Compression mode            : Lossy
    Stream size                 : 133 MiB (8%)
    Language                    : Russian
    Default                     : Yes
    Forced                      : No
    Audio #2
    ID                          : 3
    Format                      : AC-3
    Format/Info                 : Audio Coding 3
    Mode extension              : CM (complete main)
    Format settings, Endianness : Big
    Codec ID                    : A_AC3
    Duration                    : 48mn 16s
    Bit rate mode               : Constant
    Bit rate                    : 384 Kbps
    Channel(s)                  : 6 channels
    Channel positions           : Front: L C R, Side: L R, LFE
    Sampling rate               : 48.0 KHz
    Compression mode            : Lossy
    Stream size                 : 133 MiB (8%)
    Language                    : English
    Default                     : No
    Forced                      : No
    Text
    ID                          : 4
    Format                      : UTF-8
    Codec ID                    : S_TEXT/UTF8
    Codec ID/Info               : UTF-8 Plain Text
    Language                    : English
    Default                     : Yes
    Forced                      : No

    Скриншоты



    Ссылка на предыдущие и альтернативные раздачи

    http://perectracker.org/tracker.php?f=318,42&nm=stranger+things
    Скачать .torrent

    Скачать торрент-файл бесплатно и на максимальной скорости!

    Как скачивать? · Что такое торрент? · Рейтинг и ограничения

    !ВНИМАНИЕ!
    Сайт не распространяет и не хранит электронные версии произведений, а занимается лишь лишь предоставлением доступа к создаваемому пользователями каталогу ссылок на торрент-файлы, которые содержат только списки хеш-сумм, убедительная просьба с жалобами обращаться напрямую к пользователю. Файлы для обмена на трекере предоставлены пользователями сайта, и администрация не несёт ответственности за их содержание. Просьба не заливать файлы, защищенные авторскими правами, а также файлы нелегального содержания!


    _________________
    [Профиль] [ЛС]
    Показать сообщения:    
    Ответить на тему

    Текущее время: Сегодня, в 02:03

    Часовой пояс: GMT + 2



    Вы не можете начинать темы
    Вы не можете отвечать на сообщения
    Вы не можете редактировать свои сообщения
    Вы не можете удалять свои сообщения
    Вы не можете голосовать в опросах
    Вы не можете прикреплять файлы к сообщениям
    Вы не можете скачивать файлы