BitTorrentTracker PerecTracker.org
BitTorrentTracker PerecTracker.org
    
Регистрация  ·  Вход
 
 · 
Забыли пароль?

  • 12 обезьян / 12 Monkeys / Сезон: 2 / Серии: 1-13 (13) (Дэвид Гроссман) [2016, фантастика, триллер, WEB-DLRip] MVO (OMSKBIRD)

    Ответить на тему
     
    Автор Сообщение

    rechyn

    Создавать темы 20-Июл-2016 19:14

           

    [Цитировать]

    -12 обезьян / 12 Monkeys-Год выпуска • 2016
    Страна • США
    Жанр • фантастика, триллер
    Продолжительность • ~44 мин.
    Перевод
    • Профессиональный (многоголосый, закадровый) "OMSKBIRD records"-Режиссёр • Дэвид Гроссман, Майкл Ваксман, Джон Бэдэм
    В ролях • Аарон Стэнфорд, Аманда Шулл, Кирк Асеведо, Ной Бин, Демор Барнс, Рамон Де Окампо, Алисен Даун, Барбара Зукова, Эмили Хэмпшир и др.-Описание • Коул - уголовник из постапокалиптического будущего. Его осудили за дерзкое поведение и неподчинение властям. В конце девяностых некий вирус уничтожил почти всю популяцию людей, а те, кому удалось выжить, укрылись под землей. В то время ученые уже изобрели технологию путешествия во времени, и Коул стал «морской свинкой», на которой эту технологию решили испытать. Он должен добыть для изучения образцы вируса из прошлого и за это получит полное прощение за все содеянное.-ПереводНикита Коваль
    Роли озвучивалиПавел Ярощик, Андрей Астров, Алена Соколова
    ЗвукорежиссерПавел Квентов
    ПостерКсения Просветова
    Релиз подготовилGater-
    Качество: WEB-DLRip
    Формат: AVI
    Видео: Xvid / ~ 2000 kbps / 720:400p / 23.976 fps / 16:9 / ~ 0.290 bit/pixel
    Аудио:
    Русский / Dolby Digital 5.1 / 48 kHz / 384 kbps
    English / Dolby Digital 5.1 / 48 kHz / 384 kbps
    Субтитры:нет-

    Все раздачи сериала
    -

    Скриншоты

    -

    MediaInfo


    General
    Complete name : F:\Мои Документы\Видео\РАЗДАЧИ\Бабезьян Monkeys S02 WEB-DLRip (OMSKBIRD) Monkeys S02E01 WEB-DLRip (OMSKBIRD).avi
    Format : AVI
    Format/Info : Audio Video Interleave
    File size : 849 MiB
    Duration : 42mn 50s
    Overall bit rate : 2 769 Kbps
    Writing application : VirtualDubMod 1.5.10.3 | www.virtualdub-fr.org || (build 2550/release)
    Writing library : VirtualDubMod build 2550/release
    Video
    ID : 0
    Format : MPEG-4 Visual
    Format profile : Advanced Simple@L5
    Format settings, BVOP : 1
    Format settings, QPel : No
    Format settings, GMC : No warppoints
    Format settings, Matrix : Default (MPEG)
    Codec ID : XVID
    Codec ID/Hint : XviD
    Duration : 42mn 50s
    Bit rate : 1 987 Kbps
    Width : 720 pixels
    Height : 400 pixels
    Display aspect ratio : 16:9
    Frame rate : 23.976 fps
    Color space : YUV
    Chroma subsampling : 4:2:0
    Bit depth : 8 bits
    Scan type : Progressive
    Compression mode : Lossy
    Bits/(Pixel*Frame) : 0.288
    Stream size : 609 MiB (72%)
    Writing library : XviD 1.2.1 (UTC 2008-12-04)
    Audio #1
    ID : 1
    Format : AC-3
    Format/Info : Audio Coding 3
    Mode extension : CM (complete main)
    Format settings, Endianness : Big
    Codec ID : 2000
    Duration : 42mn 50s
    Bit rate mode : Constant
    Bit rate : 384 Kbps
    Channel(s) : 6 channels
    Channel positions : Front: L C R, Side: L R, LFE
    Sampling rate : 48.0 KHz
    Bit depth : 16 bits
    Compression mode : Lossy
    Stream size : 118 MiB (14%)
    Alignment : Split accross interleaves
    Interleave, duration : 42 ms (1.00 video frame)
    Interleave, preload duration : 500 ms
    Audio #2
    ID : 2
    Format : AC-3
    Format/Info : Audio Coding 3
    Mode extension : CM (complete main)
    Format settings, Endianness : Big
    Codec ID : 2000
    Duration : 42mn 50s
    Bit rate mode : Constant
    Bit rate : 384 Kbps
    Channel(s) : 6 channels
    Channel positions : Front: L C R, Side: L R, LFE
    Sampling rate : 48.0 KHz
    Bit depth : 16 bits
    Compression mode : Lossy
    Stream size : 118 MiB (14%)
    Alignment : Split accross interleaves
    Interleave, duration : 42 ms (1.00 video frame)
    Interleave, preload duration : 500 ms
    Скачать .torrent

    Скачать торрент-файл бесплатно и на максимальной скорости!

    Как скачивать? · Что такое торрент? · Рейтинг и ограничения

    !ВНИМАНИЕ!
    Сайт не распространяет и не хранит электронные версии произведений, а занимается лишь лишь предоставлением доступа к создаваемому пользователями каталогу ссылок на торрент-файлы, которые содержат только списки хеш-сумм, убедительная просьба с жалобами обращаться напрямую к пользователю. Файлы для обмена на трекере предоставлены пользователями сайта, и администрация не несёт ответственности за их содержание. Просьба не заливать файлы, защищенные авторскими правами, а также файлы нелегального содержания!


    _________________
    [Профиль] [ЛС]
    Показать сообщения:    
    Ответить на тему

    Текущее время: Сегодня, в 18:06

    Часовой пояс: GMT + 2



    Вы не можете начинать темы
    Вы не можете отвечать на сообщения
    Вы не можете редактировать свои сообщения
    Вы не можете удалять свои сообщения
    Вы не можете голосовать в опросах
    Вы не можете прикреплять файлы к сообщениям
    Вы не можете скачивать файлы