BitTorrentTracker PerecTracker.org
BitTorrentTracker PerecTracker.org
    
Регистрация  ·  Вход
 
 · 
Забыли пароль?

  • Обратная сторона луны / Сезон: 2 / Серии: 1-16 из 16 (Александр Котт) [2016, фантастика, WEBRip 720p]

    Ответить на тему
     
    Автор Сообщение

    rechyn

    Создавать темы 20-Июл-2016 19:11

           

    [Цитировать]

    Обратная сторона луны. Сезон 2.--Год выпуска: 2016
    Производство: Кинокомпания "Слово" по заказу компании "Среда"
    Жанр: фантастика
    Продолжительность: 00:52:00
    Субтитры: нет-Режиссёр: Александр Котт-В ролях: Павел Деревянко, Светлана Смирнова-Марцинкевич, Иван Шибанов, Анатолий Горячев, Михаил Грубов, Сергей Карякин, Дмитрий Горевой, Максим Виторган, Алёна Константинова, Сергей Петров (II), Юрий Голайдо, Сергей Галахов, Арсений Кудряшов, Игорь Денисов, Ирина Марцинкевич, Владимир Симонов, Ирина Основина, Валентин Самохин, Маргарита Исайкова, Юрий Нифонтов, Арсений Перель, Григорий Перель, Михаил Горевой, Галина Звягинцева, Дмитрий Муляр, Пётр Кудряшов
    Описание: Миша Соловьев возвращается! Путем невероятного перемещения во времени и пространстве, герой попадает обратно в наше время. Но вскоре он понимает, что ошибся — он находится в СССР, в котором не было перестройки. Теперь он вынужден работать простым участковым. Мешать ему как обычно будет маньяк Павлов.
    Все раздачи сериала:
    Сэмпл: http://multi-up.com/1110633
    Качество видео: WEBRip 720p
    Формат видео: MPEG-4
    Видео кодек: H.264
    Аудио кодек: AAC
    Видео: MPEG-4 Video 1 280x720, ~980 kb/s, 25.00fps, 0.043 bit/pixel
    Аудио: AAC, 2 канала, 48,0 КГц, ~398 kb/s,

    MediaInfo

    Format : MPEG-4
    Format profile : Base Media
    Codec ID : isom (isom/iso2/avc1/mp41)
    File size : 520 MiB
    Duration : 52 min
    Overall bit rate : 1 381 kb/s
    Encoded date : UTC 1904-01-01 00:00:00
    Tagged date : UTC 1904-01-01 00:00:00
    Writing application : Lavf57.25.100
    Video
    ID : 1
    Format : AVC
    Format/Info : Advanced Video Codec
    Format profile : High@L4.1
    Format settings, CABAC : Yes
    Format settings, ReFrames : 4 frames
    Codec ID : avc1
    Codec ID/Info : Advanced Video Coding
    Duration : 52 min
    Bit rate : 980 kb/s
    Width : 1 280 pixels
    Height : 720 pixels
    Display aspect ratio : 16:9
    Frame rate mode : Constant
    Frame rate : 25.000 FPS
    Color space : YUV
    Chroma subsampling : 4:2:0
    Bit depth : 8 bits
    Scan type : Progressive
    Bits/(Pixel*Frame) : 0.043
    Stream size : 368 MiB (71%)
    Writing library : x264 core 148 r2705 3f5ed56
    Encoding settings : cabac=1 / ref=3 / deblock=1:0:0 / analyse=0x3:0x113 / me=hex / subme=7 / psy=1 / psy_rd=1.00:0.00 / mixed_ref=1 / me_range=16 / chroma_me=1 / trellis=1 / 8x8dct=1 / cqm=0 / deadzone=21,11 / fast_pskip=1 / chroma_qp_offset=-2 / threads=12 / lookahead_threads=2 / sliced_threads=0 / nr=0 / decimate=1 / interlaced=0 / bluray_compat=0 / constrained_intra=0 / bframes=3 / b_pyramid=2 / b_adapt=1 / b_bias=0 / direct=1 / weightb=1 / open_gop=0 / weightp=2 / keyint=240 / keyint_min=24 / scenecut=40 / intra_refresh=0 / rc_lookahead=40 / rc=2pass / mbtree=1 / bitrate=980 / ratetol=1.0 / qcomp=0.60 / qpmin=0 / qpmax=69 / qpstep=4 / cplxblur=20.0 / qblur=0.5 / vbv_maxrate=1960 / vbv_bufsize=14000 / nal_hrd=none / filler=0 / ip_ratio=1.40 / aq=1:1.00
    Encoded date : UTC 1904-01-01 00:00:00
    Tagged date : UTC 1904-01-01 00:00:00
    Audio
    ID : 2
    Format : AAC
    Format/Info : Advanced Audio Codec
    Format profile : LC
    Codec ID : 40
    Duration : 52 min
    Bit rate mode : Constant
    Bit rate : 398 kb/s
    Channel(s) : 2 channels
    Channel positions : Front: L R
    Sampling rate : 48.0 kHz
    Frame rate : 46.875 FPS (1024 spf)
    Compression mode : Lossy
    Stream size : 150 MiB (29%)
    Default : Yes
    Alternate group : 1
    Encoded date : UTC 1904-01-01 00:00:00
    Tagged date : UTC 1904-01-01 00:00:00

    Скриншоты

    Скачать .torrent

    Скачать торрент-файл бесплатно и на максимальной скорости!

    Как скачивать? · Что такое торрент? · Рейтинг и ограничения

    !ВНИМАНИЕ!
    Сайт не распространяет и не хранит электронные версии произведений, а занимается лишь лишь предоставлением доступа к создаваемому пользователями каталогу ссылок на торрент-файлы, которые содержат только списки хеш-сумм, убедительная просьба с жалобами обращаться напрямую к пользователю. Файлы для обмена на трекере предоставлены пользователями сайта, и администрация не несёт ответственности за их содержание. Просьба не заливать файлы, защищенные авторскими правами, а также файлы нелегального содержания!


    _________________
    [Профиль] [ЛС]
    Показать сообщения:    
    Ответить на тему

    Текущее время: Сегодня, в 01:07

    Часовой пояс: GMT + 2



    Вы не можете начинать темы
    Вы не можете отвечать на сообщения
    Вы не можете редактировать свои сообщения
    Вы не можете удалять свои сообщения
    Вы не можете голосовать в опросах
    Вы не можете прикреплять файлы к сообщениям
    Вы не можете скачивать файлы