BitTorrentTracker PerecTracker.org
BitTorrentTracker PerecTracker.org
    
Регистрация  ·  Вход
 
 · 
Забыли пароль?

  • [ATV3] Преступник / Criminal (Ариэль Вромен / Ariel Vromen) [2016, США, Фантастика, боевик, триллер, драма, криминал, детектив, BDRip, HD (1080p)] DUB + Original + sub (eng)

    Ответить на тему
     
    Автор Сообщение

    rechyn

    Создавать темы 20-Июл-2016 18:29

           

    [Цитировать]

    Преступник / Criminal
    «The CIA's last hope is in the mind of a criminal»
    6.233 / 10 6.30 / 10
    -Год выпуска: 2016
    Страна: США
    Жанр: Фантастика, боевик, триллер, драма, криминал, детектив
    Продолжительность: 01: 53: 34
    Перевод: Дублированный (iTunes)
    Оригинальная аудиодорожка: Есть
    Cубтитры: Английские
    Режиссёр: Ариэль Вромен
    Сценарий: Дуглас Кук, Дэвид Уайсберг
    Продюсер: Крис Бендер, Криста Кэмпбелл, Боаз Дэвидсон
    Оператор: Дана Гонсалес
    Композитор: Кит Пауэр, Брайан Тайлер
    Художник: Джон Хенсон, Грант Армстронг, Ханна Моусли
    Монтаж: Дэнни Рафик
    В ролях: Кевин Костнер, Гари Олдман, Томми Ли Джонс, Райан Рейнольдс, Элис Ив, Галь Гадот, Хорди Молья, Майкл Питт, Амори Ноласко, Антье Трауэ
    Бюджет: $31 500 000
    Сборы в США: $14 708 696
    Сборы в России: $746 644
    Мировая премьера: 5 апреля 2016
    Премьера (РФ): 14 апреля 2016, «MEGOGO Distribution»
    Описание: В последней отчаянной попытке остановить катастрофу мирового масштаба генетики осуществляют невероятную операцию по вживлению воспоминаний и умений погибшего оперативника ЦРУ в тело опасного заключенного с надеждой, что тот доведет до конца прерванную миссию агента.-Качество исходника: BDRemux (HDClub)
    Качество: BDRip
    Тип: HD (1080p)
    Контейнер: M4V
    Видео: H.264, 1920x800, 2.40:1, 8 000 Kbps, 23.976 fps
    Аудио 1: Русский/Дублированный (iTunes), AAC / 2.0 / 157 Kbps / 48.0 KHz
    Аудио 2: Английский/Оригинальная дорожка , AAC / 2.0 / 157 Kbps / 48.0 KHz
    Аудио 3: Русский/Дублированный (iTunes), AC-3 / 5.1 / 384 Kbps / 48.0 KHz
    Аудио 4: Английский/Оригинальная дорожка , AC-3 / 5.1 / 640 Kbps / 48.0 KHz
    Субтитры: Английские полные
    -

    iTunes Meta Tags

    Sort Name: Преступник
    XID: Apple:vendor_id:2016-775517
    contentID: 1131289407
    Copyright: © 2016 «MEGOGO Distribution»
    Screenwriters: Дуглас Кук, Дэвид Уайсберг
    Producers: Крис Бендер, Криста Кэмпбелл, Боаз Дэвидсон
    Director: Ариэль Вромен
    Cast: Кевин Костнер, Гари Олдман, Томми Ли Джонс, Райан Рейнольдс, Элис Ив, Галь Гадот, Хорди Молья, Майкл Питт, Амори Ноласко, Антье Трауэ
    Studio: Lionsgate
    Rating: 136
    Long Description: В последней отчаянной попытке остановить катастрофу мирового масштаба генетики осуществляют невероятную операцию по вживлению воспоминаний и умений погибшего оперативника ЦРУ в тело опасного заключенного с надеждой, что тот доведет до конца прерванную миссию агента.
    Description: В последней отчаянной попытке остановить катастрофу мирового масштаба генетики осуществляют невероятную операцию по вживлению воспоминаний и умений погибшего оперативника ЦРУ в тело опасного заключенного с надеждой, что тот доведет до конца прерванную миссию агента.
    Release Date: 2016-04-05T08:00:00Z
    Genre: Боевики и приключения
    Artist: Ariel Vromen
    Name: Преступник

    MediaInfo

    General
    Complete name : /Users/imac/HandBrake/Criminal (1080p HD).m4v
    Format : MPEG-4
    Codec ID : M4V
    File size : 7.41 GiB
    Duration : 1h 53mn
    Overall bit rate mode : Variable
    Overall bit rate : 9 339 Kbps
    Movie name : Преступник
    Performer : Ariel Vromen
    Director : Ариэль Вромен
    Actor : Кевин Костнер / Гари Олдман / Томми Ли Джонс / Райан Рейнольдс / Элис Ив / Галь Гадот / Хорди Молья / Майкл Питт / Амори Ноласко / Антье Трауэ
    Screenplay by : Дуглас Кук / Дэвид Уайсберг
    Producer : Крис Бендер / Криста Кэмпбелл / Боаз Дэвидсон
    Production studio : Lionsgate
    Genre : Боевики и приключения
    ContentType : Short Film
    Description : В последней отчаянной попытке остановить катастрофу мирового масштаба генетики осуществляют невероятную операцию по вживлению воспоминаний и умений погибшего оперативника ЦРУ в тело опасного заключенного с надеждой, что тот доведет до конца прерванную миссию агента.
    Recorded date : UTC 2016-04-05 08:00:00
    Encoded date : UTC 2016-07-20 10:50:42
    Tagged date : UTC 2016-07-20 10:53:20
    Copyright : © 2016 «MEGOGO Distribution»
    Cover : Yes
    Rating : None
    Title/Sort : Преступник
    LongDescription : В последней отчаянной попытке остановить катастрофу мирового масштаба генетики осуществляют невероятную операцию по вживлению воспоминаний и умений погибшего оперативника ЦРУ в тело опасного заключенного с надеждой, что тот доведет до конца прерванную миссию агента.
    AppleStoreCatalogID : 1131289407
    Vendor : Apple:vendor_id:2016-775517
    ContentRating : ru-movie|18+|400|
    Video #1
    ID : 1
    Format : AVC
    Format/Info : Advanced Video Codec
    Format profile : High@L4
    Format settings, CABAC : Yes
    Format settings, ReFrames : 4 frames
    Codec ID : avc1
    Codec ID/Info : Advanced Video Coding
    Duration : 1h 53mn
    Source duration : 1h 53mn
    Bit rate : 8 000 Kbps
    Width : 1 920 pixels
    Height : 800 pixels
    Display aspect ratio : 2.40:1
    Frame rate mode : Variable
    Frame rate : 23.976 fps
    Minimum frame rate : 23.974 fps
    Maximum frame rate : 23.981 fps
    Color space : YUV
    Chroma subsampling : 4:2:0
    Bit depth : 8 bits
    Scan type : Progressive
    Bits/(Pixel*Frame) : 0.217
    Stream size : 6.34 GiB (86%)
    Source stream size : 6.34 GiB (86%)
    Title : Main Program
    Writing library : x264 core 142 r2479 dd79a61
    Encoding settings : cabac=1 / ref=4 / deblock=1:-2:-2 / analyse=0x3:0x133 / me=umh / subme=10 / psy=1 / psy_rd=1.00:0.15 / mixed_ref=1 / me_range=32 / chroma_me=1 / trellis=2 / 8x8dct=1 / cqm=0 / deadzone=21,11 / fast_pskip=0 / chroma_qp_offset=-3 / threads=36 / lookahead_threads=6 / sliced_threads=0 / nr=0 / decimate=0 / interlaced=0 / bluray_compat=0 / constrained_intra=0 / bframes=16 / b_pyramid=2 / b_adapt=2 / b_bias=0 / direct=3 / weightb=1 / open_gop=0 / weightp=2 / keyint=240 / keyint_min=24 / scenecut=40 / intra_refresh=0 / rc_lookahead=60 / rc=2pass / mbtree=1 / bitrate=8000 / ratetol=1.0 / qcomp=0.70 / qpmin=0 / qpmax=69 / qpstep=4 / cplxblur=20.0 / qblur=0.5 / vbv_maxrate=25000 / vbv_bufsize=25000 / nal_hrd=none / filler=0 / ip_ratio=1.40 / aq=1:1.00
    Language : English
    Encoded date : UTC 2016-07-20 10:50:42
    Tagged date : UTC 2016-07-20 10:50:56
    Color range : Limited
    Color primaries : BT.709
    Transfer characteristics : BT.709
    Matrix coefficients : BT.709
    Video #2
    ID : 8
    Format : JPEG
    Codec ID : jpeg
    Duration : 1h 53mn
    Bit rate mode : Variable
    Bit rate : 596 bps
    Width : 640 pixels
    Height : 266 pixels
    Display aspect ratio : 2.40:1
    Frame rate mode : Variable
    Frame rate : 0.002 fps
    Minimum frame rate : 0.001 fps
    Maximum frame rate : 0.005 fps
    Color space : YUV
    Chroma subsampling : 4:2:0
    Bit depth : 8 bits
    Compression mode : Lossy
    Bits/(Pixel*Frame) : 1.750
    Stream size : 582 KiB (0%)
    Title : Chapter Images
    Language : English
    Encoded date : UTC 2016-07-20 10:51:05
    Tagged date : UTC 2016-07-20 10:51:05
    Audio #1
    ID : 2
    Format : AAC
    Format/Info : Advanced Audio Codec
    Format profile : LC
    Codec ID : 40
    Duration : 1h 53mn
    Bit rate mode : Variable
    Bit rate : 157 Kbps
    Maximum bit rate : 251 Kbps
    Channel(s) : 2 channels
    Channel positions : Front: L R
    Sampling rate : 48.0 KHz
    Compression mode : Lossy
    Stream size : 127 MiB (2%)
    Title : Russian Stereo
    Language : Russian
    Encoded date : UTC 2016-07-20 10:50:42
    Tagged date : UTC 2016-07-20 10:50:57
    Audio #2
    ID : 3
    Format : AAC
    Format/Info : Advanced Audio Codec
    Format profile : LC
    Codec ID : 40
    Duration : 1h 53mn
    Bit rate mode : Variable
    Bit rate : 157 Kbps
    Maximum bit rate : 247 Kbps
    Channel(s) : 2 channels
    Channel positions : Front: L R
    Sampling rate : 48.0 KHz
    Compression mode : Lossy
    Stream size : 127 MiB (2%)
    Title : English Stereo
    Language : English
    Encoded date : UTC 2016-07-20 10:50:42
    Tagged date : UTC 2016-07-20 10:50:57
    Audio #3
    ID : 4
    Format : AC-3
    Format/Info : Audio Coding 3
    Mode extension : CM (complete main)
    Format settings, Endianness : Big
    Codec ID : ac-3
    Duration : 1h 53mn
    Bit rate mode : Constant
    Bit rate : 384 Kbps
    Channel(s) : 6 channels
    Channel positions : Front: L C R, Side: L R, LFE
    Sampling rate : 48.0 KHz
    Bit depth : 16 bits
    Compression mode : Lossy
    Stream size : 312 MiB (4%)
    Title : Russian DD 5.1
    Language : Russian
    Encoded date : UTC 2016-07-20 10:50:42
    Tagged date : UTC 2016-07-20 10:50:49
    Audio #4
    ID : 5
    Format : AC-3
    Format/Info : Audio Coding 3
    Mode extension : CM (complete main)
    Format settings, Endianness : Big
    Codec ID : ac-3
    Duration : 1h 53mn
    Bit rate mode : Constant
    Bit rate : 640 Kbps
    Channel(s) : 6 channels
    Channel positions : Front: L C R, Side: L R, LFE
    Sampling rate : 48.0 KHz
    Bit depth : 16 bits
    Compression mode : Lossy
    Stream size : 520 MiB (7%)
    Title : English DD 5.1
    Language : English
    Encoded date : UTC 2016-07-20 10:50:42
    Tagged date : UTC 2016-07-20 10:50:49
    Text
    ID : 6
    Format : Timed Text
    Muxing mode : sbtl
    Codec ID : tx3g
    Duration : 1h 44mn
    Bit rate mode : Variable
    Bit rate : 50 bps
    Stream size : 38.6 KiB (0%)
    Title : English full
    Language : English
    Encoded date : UTC 2016-07-20 10:50:42
    Tagged date : UTC 2016-07-20 10:50:42
    Menu #1
    00:00:00.000 : Chapter 1
    00:10:41.349 : Chapter 2
    00:15:32.348 : Chapter 3
    00:23:44.673 : Chapter 4
    00:30:56.646 : Chapter 5
    00:36:01.451 : Chapter 6
    00:45:35.775 : Chapter 7
    00:48:48.592 : Chapter 8
    00:54:50.829 : Chapter 9
    01:01:46.328 : Chapter 10
    01:08:32.692 : Chapter 11
    01:16:11.192 : Chapter 12
    01:22:20.227 : Chapter 13
    01:29:52.095 : Chapter 14
    01:36:45.717 : Chapter 15
    01:42:08.581 : Chapter 16
    Menu #2
    ID : 7
    Codec ID : text
    Duration : 1h 53mn
    Language : English
    Encoded date : UTC 2016-07-20 10:50:57
    Tagged date : UTC 2016-07-20 10:50:57
    00:00:00.000 : Chapter 1
    00:10:41.349 : Chapter 2
    00:15:32.348 : Chapter 3
    00:23:44.673 : Chapter 4
    00:30:56.646 : Chapter 5
    00:36:01.451 : Chapter 6
    00:45:35.775 : Chapter 7
    00:48:48.592 : Chapter 8
    00:54:50.829 : Chapter 9
    01:01:46.328 : Chapter 10
    01:08:32.692 : Chapter 11
    01:16:11.192 : Chapter 12
    01:22:20.227 : Chapter 13
    01:29:52.095 : Chapter 14
    01:36:45.717 : Chapter 15
    01:42:08.581 : Chapter 16
    Bit rate mode : VBR

    x264 лог

    x264 [info]: frame I:973   Avg QP:15.48  size:175013
    x264 [info]: frame P:41676 Avg QP:17.87  size: 64393
    x264 [info]: frame B:120744 Avg QP:18.70  size: 32746
    x264 [info]: consecutive B-frames:  3.7%  8.1% 12.6% 16.3% 19.0% 31.8%  4.1%  0.7%  0.9%  0.5%  0.4%  0.1%  0.3%  0.4%  0.2%  0.2%  0.8%
    x264 [info]: mb I  I16..4: 14.7% 74.8% 10.5%
    x264 [info]: mb P  I16..4:  4.3% 18.3%  1.3%  P16..4: 42.7% 16.0%  9.3%  0.2%  0.1%    skip: 7.9%
    x264 [info]: mb B  I16..4:  0.2%  2.0%  0.1%  B16..8: 44.5% 10.6%  2.5%  direct: 8.8%  skip:31.2%  L0:43.4% L1:47.1% BI: 9.5%
    x264 [info]: 8x8 transform intra:78.5% inter:62.7%
    x264 [info]: direct mvs  spatial:97.3% temporal:2.7%
    x264 [info]: coded y,uvDC,uvAC intra: 81.0% 78.9% 57.6% inter: 33.6% 33.3% 13.7%
    x264 [info]: i16 v,h,dc,p: 51% 11%  8% 29%
    x264 [info]: i8 v,h,dc,ddl,ddr,vr,hd,vl,hu:  8%  8% 10% 10% 14% 12% 13% 11% 13%
    x264 [info]: i4 v,h,dc,ddl,ddr,vr,hd,vl,hu:  9%  9%  5% 10% 15% 14% 14% 11% 13%
    x264 [info]: i8c dc,h,v,p: 47% 22% 16% 15%
    x264 [info]: Weighted P-Frames: Y:2.1% UV:0.7%
    x264 [info]: ref P L0: 53.5%  8.7% 25.4% 10.5%  1.8%  0.0%
    x264 [info]: ref B L0: 84.1% 13.2%  2.7%
    x264 [info]: ref B L1: 91.6%  8.4%
    x264 [info]: kb/s:7991.71

    Скриншоты

    -

    Релиз подготовлен для просмотра на Apple TV, iPad, iPhone, iPod Touch.
    Для просмотра данного релиза на компьютере с ОС Windows рекомендуется использовать VLC media player
    Скачать .torrent

    Скачать торрент-файл бесплатно и на максимальной скорости!

    Как скачивать? · Что такое торрент? · Рейтинг и ограничения

    !ВНИМАНИЕ!
    Сайт не распространяет и не хранит электронные версии произведений, а занимается лишь лишь предоставлением доступа к создаваемому пользователями каталогу ссылок на торрент-файлы, которые содержат только списки хеш-сумм, убедительная просьба с жалобами обращаться напрямую к пользователю. Файлы для обмена на трекере предоставлены пользователями сайта, и администрация не несёт ответственности за их содержание. Просьба не заливать файлы, защищенные авторскими правами, а также файлы нелегального содержания!


    _________________
    [Профиль] [ЛС]
    Показать сообщения:    
    Ответить на тему

    Текущее время: Сегодня, в 11:43

    Часовой пояс: GMT + 2



    Вы не можете начинать темы
    Вы не можете отвечать на сообщения
    Вы не можете редактировать свои сообщения
    Вы не можете удалять свои сообщения
    Вы не можете голосовать в опросах
    Вы не можете прикреплять файлы к сообщениям
    Вы не можете скачивать файлы