BitTorrentTracker PerecTracker.org
BitTorrentTracker PerecTracker.org
    
Регистрация  ·  Вход
 
 · 
Забыли пароль?

  • Незваные гости / Intruders / Shut In (Адам Шиндлер / Adam Schindler) [2015, США, ужасы, триллер, драма, BDRip-AVC] Dub + Original + Sub (eng)

    Ответить на тему
     
    Автор Сообщение

    Light

    Создавать темы 20-Июл-2016 14:17

           

    [Цитировать]

    Незваные гости / Intruders / Shut In«They should have left her alone»-Страна: США
    Жанр: ужасы, триллер, драма
    Год выпуска: 2015
    Продолжительность: 01:30:19
    Перевод: Профессиональный (дублированный) (iTunes)
    Оригинальная аудиодорожка: английский
    Субтитры: английские
    Навигация по главам: нет
    Режиссер: Адам Шиндлер / Adam Schindler
    В ролях: Рори Калкин (Dan Cooper), Летисия Хименез (Charlotte), Джек Кеси (J.P. Henson), Тимоти Т. МакКинни (Conrad), Джошуа Микель (Vance), Бэт Рисграф (Anna Rook), Мартин Старр (Perry Cuttner)
    Описание: Анна страдает от агорафобии, поэтому, когда трое преступников врываются в ее дом, она не может заставить себя выбежать на улицу. Злоумышленники пока не знают, что боязнь открытого пространства - не единственное расстройство психики девушки.- -Качество: BDRip-AVC (исходник - Blu-ray|T_INTRUDERS_BLUEBIRD)
    Формат видео: MKV
    Видео: x264, 1152x482 (2.40:1), 24.000 fps, ~1663 kbps, 0.125 bit/pixel
    Аудио 1: 48 kHz, AC3 Dolby Digital, 3/2 (L,C,R,l,r) + LFE ch, ~384 kbps [русский]
    Аудио 2: 48 kHz, AC3 Dolby Digital, 2/0 (L,R) ch, ~192 kbps [английский]
    Формат субтитров: softsub (SRT)-MediaInfo | x264 log
    Format : Matroska
    Format version : Version 4 / Version 2
    File size : 1.44 GiB
    Duration : 1h 30mn
    Overall bit rate : 2 285 Kbps
    Movie name : Незваные гости / Intruders / Shut In (2015) :: AFM ::
    Encoded date : UTC 2016-07-19 18:51:51
    Writing application : mkvmerge v8.3.0 ('Over the Horizon') 32bit
    Writing library : libebml v1.3.1 + libmatroska v1.4.2
    Video
    ID : 1
    Format : AVC
    Format/Info : Advanced Video Codec
    Format profile : High@L4.1
    Format settings, CABAC : Yes
    Format settings, ReFrames : 9 frames
    Codec ID : V_MPEG4/ISO/AVC
    Duration : 1h 30mn
    Bit rate : 1 663 Kbps
    Width : 1 152 pixels
    Height : 482 pixels
    Display aspect ratio : 2.40:1
    Frame rate mode : Constant
    Frame rate : 24.000 fps
    Color space : YUV
    Chroma subsampling : 4:2:0
    Bit depth : 8 bits
    Scan type : Progressive
    Bits/(Pixel*Frame) : 0.125
    Stream size : 1.05 GiB (73%)
    Title : BDRip by AFM [RuTracker.org]
    Writing library : x264 core 148 r2705+54 9f484c1 t_mod_Custom [8-bit@all X86_64]
    Encoding settings : cabac=1 / ref=9 / deblock=1:-3:-2 / analyse=0x3:0x113 / me=umh / subme=10 / psy=1 / fade_compensate=0.00 / psy_rd=1.00:0.00 / mixed_ref=1 / me_range=32 / chroma_me=1 / trellis=2 / 8x8dct=1 / cqm=0 / deadzone=21,11 / fast_pskip=0 / chroma_qp_offset=-2 / threads=6 / lookahead_threads=1 / sliced_threads=0 / nr=0 / decimate=1 / interlaced=0 / bluray_compat=0 / constrained_intra=0 / fgo=0 / bframes=13 / b_pyramid=2 / b_adapt=2 / b_bias=0 / direct=1 / weightb=1 / open_gop=0 / weightp=2 / keyint=250 / keyint_min=23 / scenecut=40 / intra_refresh=0 / rc_lookahead=40 / rc=crf / mbtree=0 / crf=17.9000 / qcomp=0.65 / qpmin=0:0:0 / qpmax=69:69:69 / qpstep=4 / vbv_maxrate=50000 / vbv_bufsize=62500 / crf_max=0.0 / nal_hrd=none / filler=0 / ip_ratio=1.25 / pb_ratio=1.22 / aq=1:0.80 / aq-sensitivity=10.00 / aq-factor=1.00:1.00:1.00 / aq2=0 / aq3=0
    Language : English
    Default : Yes
    Forced : No
    Audio #1
    ID : 2
    Format : AC-3
    Format/Info : Audio Coding 3
    Mode extension : CM (complete main)
    Format settings, Endianness : Big
    Codec ID : A_AC3
    Duration : 1h 30mn
    Bit rate mode : Constant
    Bit rate : 384 Kbps
    Channel(s) : 6 channels
    Channel positions : Front: L C R, Side: L R, LFE
    Sampling rate : 48.0 KHz
    Compression mode : Lossy
    Stream size : 248 MiB (17%)
    Title : Dub, AC3 5.1 ~384 kbps
    Language : Russian
    Default : Yes
    Forced : No
    Audio #2
    ID : 3
    Format : AC-3
    Format/Info : Audio Coding 3
    Mode extension : CM (complete main)
    Format settings, Endianness : Big
    Codec ID : A_AC3
    Duration : 1h 30mn
    Bit rate mode : Constant
    Bit rate : 192 Kbps
    Channel(s) : 2 channels
    Channel positions : Front: L R
    Sampling rate : 48.0 KHz
    Compression mode : Lossy
    Stream size : 124 MiB (8%)
    Title : Original, AC3 2.0 ~192 kbps
    Language : English
    Default : No
    Forced : No
    Text
    ID : 4
    Format : UTF-8
    Codec ID : S_TEXT/UTF8
    Codec ID/Info : UTF-8 Plain Text
    Language : English
    Default : No
    Forced : No

    x264

    x264 [info]: frame I:920 Avg QP:15.40 size: 50837
    x264 [info]: frame P:23440 Avg QP:16.31 size: 20608
    x264 [info]: frame B:105705 Avg QP:18.52 size: 5934
    x264 [info]: consecutive B-frames: 1.3% 1.2% 4.8% 8.3% 10.1% 55.6% 3.9% 0.9% 2.8% 1.7% 4.8% 2.5% 1.0% 1.4%
    x264 [info]: mb I I16..4: 9.3% 75.0% 15.8%
    x264 [info]: mb P I16..4: 1.1% 8.9% 1.4% P16..4: 37.2% 28.4% 13.4% 0.0% 0.0% skip: 9.7%
    x264 [info]: mb B I16..4: 0.1% 0.5% 0.1% B16..8: 36.7% 11.2% 2.4% direct: 3.6% skip:45.4% L0:44.9% L1:45.8% BI: 9.3%
    x264 [info]: 8x8 transform intra:76.9% inter:65.0%
    x264 [info]: coded y,uvDC,uvAC intra: 79.1% 78.5% 58.3% inter: 16.4% 13.7% 2.5%
    x264 [info]: i16 v,h,dc,p: 41% 17% 5% 37%
    x264 [info]: i8 v,h,dc,ddl,ddr,vr,hd,vl,hu: 19% 8% 8% 8% 12% 13% 11% 11% 10%
    x264 [info]: i4 v,h,dc,ddl,ddr,vr,hd,vl,hu: 28% 7% 4% 9% 13% 13% 10% 9% 8%
    x264 [info]: i8c dc,h,v,p: 39% 22% 24% 15%
    x264 [info]: Weighted P-Frames: Y:3.8% UV:2.6%
    x264 [info]: ref P L0: 48.5% 9.4% 17.2% 6.8% 5.7% 4.1% 3.8% 2.1% 2.3% 0.1% 0.0%
    x264 [info]: ref B L0: 72.2% 11.8% 6.6% 3.4% 2.4% 2.1% 1.2% 0.4%
    x264 [info]: ref B L1: 93.3% 6.7%
    x264 [info]: kb/s:1708.00

    Скриншоты

    с названием

    Скачать .torrent

    Скачать торрент-файл бесплатно и на максимальной скорости!

    Как скачивать? · Что такое торрент? · Рейтинг и ограничения

    !ВНИМАНИЕ!
    Сайт не распространяет и не хранит электронные версии произведений, а занимается лишь лишь предоставлением доступа к создаваемому пользователями каталогу ссылок на торрент-файлы, которые содержат только списки хеш-сумм, убедительная просьба с жалобами обращаться напрямую к пользователю. Файлы для обмена на трекере предоставлены пользователями сайта, и администрация не несёт ответственности за их содержание. Просьба не заливать файлы, защищенные авторскими правами, а также файлы нелегального содержания!


    _________________
    [Профиль] [ЛС]
    Показать сообщения:    
    Ответить на тему

    Текущее время: Сегодня, в 18:12

    Часовой пояс: GMT + 2



    Вы не можете начинать темы
    Вы не можете отвечать на сообщения
    Вы не можете редактировать свои сообщения
    Вы не можете удалять свои сообщения
    Вы не можете голосовать в опросах
    Вы не можете прикреплять файлы к сообщениям
    Вы не можете скачивать файлы