BitTorrentTracker PerecTracker.org
BitTorrentTracker PerecTracker.org
    
Регистрация  ·  Вход
 
 · 
Забыли пароль?

  • Убить трубача / Miles Ahead (Дон Чидл / Don Cheadle) [2015, США, Драма, мелодрама, биография, музыка, HDRip] MVO (iTunes)

    Ответить на тему
     
    Автор Сообщение

    Light

    Создавать темы 19-Июл-2016 16:45

           

    [Цитировать]

    Убить трубача / Miles Ahead
    Слоган: «If you gotta tell a story, come with some attitude»
    Страна: США
    Жанр: Драма, мелодрама, биография, музыка
    Год выпуска: 2015
    Продолжительность: 01:40:38
    Перевод: Профессиональный (многоголосый закадровый) - (iTunes)
    Cубтитры: нет
    Оригинальная аудиодорожка: нет
    Режиссер: Дон Чидл / Don Cheadle
    В ролях: Эмаяци Коринеальди, Эван МакГрегор, Дон Чидл, Майкл Стулбарг, Лейкит Стэнфилд, Остин Лион, Уилльям Уиллет, Нина Смиллоу, Морган Волк
    Описание: Нью-Йорк, ноябрь 1945 года. Начинающий талантливый музыкант Майлс Дейвис входит в квинтет выдающего джазмена Чарли Паркера. Со временем молодой трубач вырабатывает свой неповторимый стиль звучания. «В мертвой музыке мелодия погибает, все дело в импровизации», – говорил Майлс Дейвис. Постепенно музыкант приобретает огромную популярность и славу не только в США, но и за пределами страны. Дейвис вносит огромный вклад в развитие акустического джаза. Музыкальные новшества знаменитого трубача становятся ориентиром для композиторов на ближайшие полсотни лет. Карьера джазмена была неровной. Дейвис переживал тяжелые периоды депрессии из-за пристрастия к наркотикам и алкоголю.
    Сэмпл: http://multi-up.com/1110334
    Качество видео: HDRip
    Исходник: [Miles.Ahead.2015.MVO.BDRip.1080p.ExKinoRay]
    Формат видео: AVI
    Видео: 720x304 (2.37:1), 23.976 fps, XviD build 65 ~1683 kbps avg, 0.32 bit/pixel
    Аудио: 48 kHz, AC3 Dolby Digital, 3/2 (L,C,R,l,r) + LFE ch, ~384 kbps

    Rip by Ториял

    MediaInfo

    General
    Complete name : D:\Фильмы\Miles_Ahead_2015_Toriyal_Rutracker.avi
    Format : AVI
    Format/Info : Audio Video Interleave
    File size : 1.46 GiB
    Duration : 1h 40mn
    Overall bit rate : 2 077 Kbps
    Writing application : VirtualDubMod 1.5.10.3 | www.virtualdub-fr.org || (build 2550/release)
    Writing library : VirtualDubMod build 2550/release
    Video
    ID : 0
    Format : MPEG-4 Visual
    Format profile : Advanced Simple@L5
    Format settings, BVOP : 1
    Format settings, QPel : No
    Format settings, GMC : No warppoints
    Format settings, Matrix : Custom
    Codec ID : XVID
    Codec ID/Hint : XviD
    Duration : 1h 40mn
    Bit rate : 1 684 Kbps
    Width : 720 pixels
    Height : 304 pixels
    Display aspect ratio : 2.35:1
    Frame rate : 23.976 (23976/1000) fps
    Color space : YUV
    Chroma subsampling : 4:2:0
    Bit depth : 8 bits
    Scan type : Progressive
    Compression mode : Lossy
    Bits/(Pixel*Frame) : 0.321
    Stream size : 1.18 GiB (81%)
    Writing library : XviD 65
    Audio
    ID : 1
    Format : AC-3
    Format/Info : Audio Coding 3
    Mode extension : CM (complete main)
    Format settings, Endianness : Big
    Codec ID : 2000
    Duration : 1h 40mn
    Bit rate mode : Constant
    Bit rate : 384 Kbps
    Channel(s) : 6 channels
    Channel positions : Front: L C R, Side: L R, LFE
    Sampling rate : 48.0 KHz
    Frame rate : 31.250 fps (1536 spf)
    Compression mode : Lossy
    Stream size : 276 MiB (18%)
    Alignment : Split accross interleaves
    Interleave, duration : 42 ms (1.00 video frame)
    Interleave, preload duratio : 500 ms

    Скриншоты

    Скачать .torrent

    Скачать торрент-файл бесплатно и на максимальной скорости!

    Как скачивать? · Что такое торрент? · Рейтинг и ограничения

    !ВНИМАНИЕ!
    Сайт не распространяет и не хранит электронные версии произведений, а занимается лишь лишь предоставлением доступа к создаваемому пользователями каталогу ссылок на торрент-файлы, которые содержат только списки хеш-сумм, убедительная просьба с жалобами обращаться напрямую к пользователю. Файлы для обмена на трекере предоставлены пользователями сайта, и администрация не несёт ответственности за их содержание. Просьба не заливать файлы, защищенные авторскими правами, а также файлы нелегального содержания!


    _________________
    [Профиль] [ЛС]
    Показать сообщения:    
    Ответить на тему

    Текущее время: Сегодня, в 06:15

    Часовой пояс: GMT + 2



    Вы не можете начинать темы
    Вы не можете отвечать на сообщения
    Вы не можете редактировать свои сообщения
    Вы не можете удалять свои сообщения
    Вы не можете голосовать в опросах
    Вы не можете прикреплять файлы к сообщениям
    Вы не можете скачивать файлы