BitTorrentTracker PerecTracker.org
BitTorrentTracker PerecTracker.org
    
Регистрация  ·  Вход
 
 · 
Забыли пароль?

  • Ключ от преисподней / Baskin (Кан Эвренол / Can Evrenol) [2015, Турция, США, Ужасы, фэнтези, WEB-DLRip] VO (ХихиДок)

    Ответить на тему
     
    Автор Сообщение

    Light

    Создавать темы 19-Июл-2016 16:45

           

    [Цитировать]

    Ключ от преисподней / Baskin
    Страна: Турция, США
    Жанр: Ужасы, фэнтези
    Год выпуска: 2015
    Продолжительность: 01:36:46
    Перевод: Одноголосый закадровый ХихиДок
    Cубтитры: нет
    Оригинальная аудиодорожка: Турецкий
    Режиссер: Кан Эвренол / Can Evrenol
    В ролях: Гокем Касал, Эгун Куючу, Мухаррем Байрак, Фатих Доккёз, Сабахаттин Яакут, Мехмет Черрахоглу, Хаяти Читаклаш, Леман Севда Даричоглу, Тугба Озкул, Аслихан Эргуван
    Описание: Пятеро полицейских, находящихся на ночном дежурстве, отправляются в глухую местность по экстренному вызову. Команда подъезжает к заброшенному зданию и заходит внутрь, чтобы осмотреться. В процессе группа разделяется, однако герои вскоре обнаруживают таинственный и подозрительный склеп. Отважные полицейские спускаются вниз, чтобы проверить это пугающее место. Вскоре выясняется, что герои оказались в самой настоящей кошмарной преисподней, где ужасы поджидают их на каждом углу. Этот полицейский рейд явно не закончится ничем хорошим. Полуразрушенное и, казалось бы, заброшенное задание, на самом деле оказывается Адом, наполненном страшными монстрами. Каждого сотрудника правоохранительных органов в этой обители зла ждет своя судьба. Каждому из них уготованы ужасающие невыносимые пытки за совершенные грехи.
    Внимание перезалив : -- Рип с более качественного исходника,а также заменен звук.
    Категория просмотра 18+
    Сэмпл:http://multi-up.com/1110480
    Качество видео: WEB-DLRip
    Формат видео: AVI
    Видео: XviD 73, 720x304, (2,35:1), 24,000 fps, 1750 Кбит/с, 8 бит
    Аудио: Русский (AC-3, 2 ch (Front: L R), 48,0 KHz, 192 Kbps)
    Аудио 2: Оригинал (AC-3, 2 ch (Front: L R), 48,0 KHz, 192 Kbps)

    MediaInfo

    Общее
    Полное имя : F:\Видеофильмы\В и д е о\Ключ от преисподней (ужасы, триллер 2015г).avi
    Формат : AVI
    Формат/Информация : Audio Video Interleave
    Размер файла : 1,45 Гбайт
    Продолжительность : 1 ч. 36 м.
    Общий поток : 2148 Кбит/сек
    Программа кодирования : VirtualDubMod 1.5.10.3 | www.virtualdub-fr.org || (build 2550/release)
    Библиотека кодирования : VirtualDubMod build 2550/release
    Видео
    Идентификатор : 0
    Формат : MPEG-4 Visual
    Профиль формата : Advanced Simple@L5
    Параметр BVOP формата : 1
    Параметр QPel формата : Нет
    Параметр GMC формата : Без точки перехода
    Параметр матрицы формата : Выборочная
    Идентификатор кодека : XVID
    Идентификатор кодека/Подсказка : XviD
    Продолжительность : 1 ч. 36 м.
    Битрейт : 1750 Кбит/сек
    Ширина : 720 пикселей
    Высота : 304 пикселя
    Соотношение сторон : 2,35:1
    Частота кадров : 24,000 кадра/сек
    Цветовое пространство : YUV
    Субдискретизация насыщенности : 4:2:0
    Битовая глубина : 8 бит
    Тип развёртки : Прогрессивная
    Метод сжатия : С потерями
    Бит/(Пиксели*Кадры) : 0.333
    Размер потока : 1,18 Гбайт (81%)
    Библиотека кодирования : XviD 73
    Аудио #1
    Идентификатор : 1
    Формат : AC-3
    Формат/Информация : Audio Coding 3
    Расширение режима : CM (complete main)
    Параметр Endianness формата : Big
    Идентификатор кодека : 2000
    Продолжительность : 1 ч. 36 м.
    Вид битрейта : Постоянный
    Битрейт : 192 Кбит/сек
    Каналы : 2 канала
    Расположение каналов : Front: L R
    Частота : 48,0 КГц
    Частота кадров : 31,250 кадров/сек (1536 spf)
    Метод сжатия : С потерями
    Размер потока : 133 Мбайт (9%)
    Выравнивание : Разделение по промежуткам
    Продолжительность промежутка : 42 мс. (1,00 видеокадр)
    Время предзагрузки промежутка : 500 мс.
    Аудио #2
    Идентификатор : 2
    Формат : AC-3
    Формат/Информация : Audio Coding 3
    Расширение режима : CM (complete main)
    Параметр Endianness формата : Big
    Идентификатор кодека : 2000
    Продолжительность : 1 ч. 36 м.
    Вид битрейта : Постоянный
    Битрейт : 192 Кбит/сек
    Каналы : 2 канала
    Расположение каналов : Front: L R
    Частота : 48,0 КГц
    Частота кадров : 31,250 кадров/сек (1536 spf)
    Метод сжатия : С потерями
    Размер потока : 133 Мбайт (9%)
    Выравнивание : Разделение по промежуткам
    Продолжительность промежутка : 42 мс. (1,00 видеокадр)
    Время предзагрузки промежутка : 500 мс.

    Скриншот c названием фильма

    Скриншоты

    Скачать .torrent

    Скачать торрент-файл бесплатно и на максимальной скорости!

    Как скачивать? · Что такое торрент? · Рейтинг и ограничения

    !ВНИМАНИЕ!
    Сайт не распространяет и не хранит электронные версии произведений, а занимается лишь лишь предоставлением доступа к создаваемому пользователями каталогу ссылок на торрент-файлы, которые содержат только списки хеш-сумм, убедительная просьба с жалобами обращаться напрямую к пользователю. Файлы для обмена на трекере предоставлены пользователями сайта, и администрация не несёт ответственности за их содержание. Просьба не заливать файлы, защищенные авторскими правами, а также файлы нелегального содержания!


    _________________
    [Профиль] [ЛС]
    Показать сообщения:    
    Ответить на тему

    Текущее время: Сегодня, в 22:24

    Часовой пояс: GMT + 2



    Вы не можете начинать темы
    Вы не можете отвечать на сообщения
    Вы не можете редактировать свои сообщения
    Вы не можете удалять свои сообщения
    Вы не можете голосовать в опросах
    Вы не можете прикреплять файлы к сообщениям
    Вы не можете скачивать файлы