BitTorrentTracker PerecTracker.org
BitTorrentTracker PerecTracker.org
    
Регистрация  ·  Вход
 
 · 
Забыли пароль?

  • Роковое влечение / Éperdument (Пьер Годо / Pierre Godeau) [2016, Франция, Бельгия , Драма, WEB-DL, HD (720p)] MVO

    Ответить на тему
     
    Автор Сообщение

    rechyn

    Создавать темы 19-Июл-2016 12:25

           

    [Цитировать]

    Роковое влечение / Éperdument
    -
    5.734 / 10 5.90 / 10
    -Год выпуска: 2016
    Страна: Франция, Бельгия
    Жанр: Драма
    Продолжительность: 01:50:15
    Перевод: Многоголосый закадровый (iTunes)
    Оригинальная аудиодорожка: Нет
    Cубтитры: Нет
    Режиссёр: Пьер Годо
    Сценарий: Пьер Годо, Florent Gonçalves, Catherine Siguret
    Продюсер: Сирил Кольбо-Жюстен, Жан-Батист Дюпон, Натали Гастальдо
    Оператор: Muriel Cravatte
    Композитор: Робин Кудер
    Художник: Стефани Тайлласьён, Джудит де Люс, Деви Тируванзям
    Монтаж: Эрве де Люз
    В ролях: Адель Экзаркопулос, Гийом Гальенн, Стефани Клео, Aliénor Poisson, Cyrielle Martinez, Selma Mansouri, Сабила Муссадек, Жюли Мулье, Мари Ривьер, Марилин Ивен
    Сборы в России: $17 494
    Мировая премьера: 25 февраля 2016
    Премьера (РФ): 7 июля 2016, «Capella Film»
    Описание: Его жизнь была беззаботной и счастливой — прекрасная работа, любящая жена, дочь. Но он готов потерять все ради нее. Кто она? Невинная девушка или сексуальная искусительница, легко манипулирующая мужчинами?-Качество исходника: WEB-DL 720p (NNMClub)
    Качество: WEB-DL
    Тип: HD (720p)
    Контейнер: M4V
    Видео: H.264, 1280x536, 2.40:1, 4 038 Kbps, 24.000 fps
    Аудио: Русский/Многоголосый закадровый (iTunes), AAC / 2.0 / 148 Kbps / 48.0 KHz
    -

    iTunes Meta Tags

    Sort Name: Роковое влечение
    XID: Apple:vendor_id:2016-893885
    contentID: 1128836513
    Screenwriters: Пьер Годо, Florent Gonçalves, Catherine Siguret
    Producers: Сирил Кольбо-Жюстен, Жан-Батист Дюпон, Натали Гастальдо
    Director: Пьер Годо
    Cast: Адель Экзаркопулос, Гийом Гальенн, Стефани Клео, Aliénor Poisson, Cyrielle Martinez, Selma Mansouri, Сабила Муссадек, Жюли Мулье, Мари Ривьер, Марилин Ивен
    Studio:  «Capella Film»
    Rating: 136
    Long Description: Его жизнь была беззаботной и счастливой — прекрасная работа, любящая жена, дочь. Но он готов потерять все ради нее. Кто она? Невинная девушка или сексуальная искусительница, легко манипулирующая мужчинами?
    Description: Его жизнь была беззаботной и счастливой — прекрасная работа, любящая жена, дочь. Но он готов потерять все ради нее. Кто она? Невинная девушка или сексуальная искусительница, легко манипулирующая мужчинами?
    Release Date: 2016-02-25T08:00:00Z
    Genre: Драма
    Artist: Пьер Годо
    Name: Роковое влечение

    MediaInfo

    General
    Complete name : /Users/imac/HandBrake/Rokovoe.vlechenie.WEBDL.720p.m4v
    Format : MPEG-4
    Codec ID : M4V
    File size : 3.23 GiB
    Duration : 1h 50mn
    Overall bit rate mode : Variable
    Overall bit rate : 4 193 Kbps
    Movie name : Роковое влечение
    Performer : Пьер Годо
    Director : Пьер Годо
    Actor : Адель Экзаркопулос / Гийом Гальенн / Стефани Клео / Aliénor Poisson / Cyrielle Martinez / Selma Mansouri / Сабила Муссадек / Жюли Мулье / Мари Ривьер / Марилин Ивен
    Screenplay by : Пьер Годо / Florent Gonçalves / Catherine Siguret
    Producer : Сирил Кольбо-Жюстен / Жан-Батист Дюпон / Натали Гастальдо
    Production studio : «Capella Film»
    Genre : Драма
    ContentType : Short Film
    Description : Его жизнь была беззаботной и счастливой — прекрасная работа, любящая жена, дочь. Но он готов потерять все ради нее. Кто она? Невинная девушка или сексуальная искусительница, легко манипулирующая мужчинами?
    Recorded date : UTC 2016-02-25 08:00:00
    Encoded date : UTC 2016-07-17 17:45:09
    Tagged date : UTC 2016-07-18 22:29:45
    Cover : Yes
    Rating : None
    Title/Sort : Роковое влечение
    LongDescription : Его жизнь была беззаботной и счастливой — прекрасная работа, любящая жена, дочь. Но он готов потерять все ради нее. Кто она? Невинная девушка или сексуальная искусительница, легко манипулирующая мужчинами?
    HDVideo : Yes
    AppleStoreCatalogID : 1128836513
    Vendor : Apple:vendor_id:2016-893885
    ContentRating : ru-movie|18+|400|
    Video #1
    ID : 1
    Format : AVC
    Format/Info : Advanced Video Codec
    Format profile : Main@L3.1
    Format settings, CABAC : No
    Format settings, ReFrames : 2 frames
    Codec ID : avc1
    Codec ID/Info : Advanced Video Coding
    Duration : 1h 50mn
    Bit rate : 4 038 Kbps
    Width : 1 280 pixels
    Height : 536 pixels
    Display aspect ratio : 2.40:1
    Frame rate mode : Variable
    Frame rate : 24.000 fps
    Minimum frame rate : 23.810 fps
    Maximum frame rate : 24.390 fps
    Color space : YUV
    Chroma subsampling : 4:2:0
    Bit depth : 8 bits
    Scan type : Progressive
    Bits/(Pixel*Frame) : 0.245
    Stream size : 3.11 GiB (96%)
    Title : Main Program
    Language : French
    Encoded date : UTC 2016-07-17 17:45:09
    Tagged date : UTC 2016-07-17 17:45:15
    Color range : Limited
    Color primaries : BT.709
    Transfer characteristics : BT.709
    Matrix coefficients : BT.709
    Video #2
    ID : 4
    Format : JPEG
    Codec ID : jpeg
    Duration : 1h 50mn
    Bit rate mode : Variable
    Bit rate : 517 bps
    Width : 640 pixels
    Height : 268 pixels
    Display aspect ratio : 2.40:1
    Frame rate mode : Constant
    Frame rate : 0.002 fps
    Color space : YUV
    Chroma subsampling : 4:2:0
    Bit depth : 8 bits
    Compression mode : Lossy
    Bits/(Pixel*Frame) : 1.507
    Stream size : 599 KiB (0%)
    Title : Chapter Images
    Language : French
    Encoded date : UTC 2016-07-17 17:45:21
    Tagged date : UTC 2016-07-17 17:45:21
    Audio
    ID : 2
    Format : AAC
    Format/Info : Advanced Audio Codec
    Format profile : LC
    Codec ID : 40
    Duration : 1h 50mn
    Bit rate mode : Variable
    Bit rate : 148 Kbps
    Maximum bit rate : 202 Kbps
    Channel(s) : 2 channels
    Channel positions : Front: L R
    Sampling rate : 48.0 KHz
    Compression mode : Lossy
    Stream size : 116 MiB (4%)
    Title : Russian Stereo
    Language : Russian
    Encoded date : UTC 2016-07-17 17:45:09
    Tagged date : UTC 2016-07-17 17:45:17
    Menu #1
    00:00:00.000 : Глава 1
    00:05:32.375 : Глава 2
    00:10:37.541 : Глава 3
    00:15:44.874 : Глава 4
    00:21:16.915 : Глава 5
    00:26:44.165 : Глава 6
    00:33:49.623 : Глава 7
    00:39:13.706 : Глава 8
    00:44:35.456 : Глава 9
    00:51:52.997 : Глава 10
    00:57:59.038 : Глава 11
    01:03:40.704 : Глава 12
    01:09:06.954 : Глава 13
    01:14:32.079 : Глава 14
    01:20:58.411 : Глава 15
    01:26:10.037 : Глава 16
    01:31:32.578 : Глава 17
    01:37:27.078 : Глава 18
    01:43:42.078 : Глава 19
    Menu #2
    ID : 3
    Codec ID : text
    Duration : 1h 50mn
    Language : French
    Encoded date : UTC 2016-07-17 17:45:17
    Tagged date : UTC 2016-07-17 17:45:17
    00:00:00.000 : Глава 1
    00:05:32.375 : Глава 2
    00:10:37.541 : Глава 3
    00:15:44.874 : Глава 4
    00:21:16.915 : Глава 5
    00:26:44.165 : Глава 6
    00:33:49.623 : Глава 7
    00:39:13.706 : Глава 8
    00:44:35.456 : Глава 9
    00:51:52.997 : Глава 10
    00:57:59.038 : Глава 11
    01:03:40.704 : Глава 12
    01:09:06.954 : Глава 13
    01:14:32.079 : Глава 14
    01:20:58.411 : Глава 15
    01:26:10.037 : Глава 16
    01:31:32.578 : Глава 17
    01:37:27.078 : Глава 18
    01:43:42.078 : Глава 19
    Bit rate mode : VBR

    Скриншоты

    -

    Релиз подготовлен для просмотра на Apple TV, iPad, iPhone, iPod Touch.
    Для просмотра данного релиза на компьютере с ОС Windows рекомендуется использовать VLC media player
    Скачать .torrent

    Скачать торрент-файл бесплатно и на максимальной скорости!

    Как скачивать? · Что такое торрент? · Рейтинг и ограничения

    !ВНИМАНИЕ!
    Сайт не распространяет и не хранит электронные версии произведений, а занимается лишь лишь предоставлением доступа к создаваемому пользователями каталогу ссылок на торрент-файлы, которые содержат только списки хеш-сумм, убедительная просьба с жалобами обращаться напрямую к пользователю. Файлы для обмена на трекере предоставлены пользователями сайта, и администрация не несёт ответственности за их содержание. Просьба не заливать файлы, защищенные авторскими правами, а также файлы нелегального содержания!


    _________________
    [Профиль] [ЛС]
    Показать сообщения:    
    Ответить на тему

    Текущее время: Сегодня, в 12:44

    Часовой пояс: GMT + 2



    Вы не можете начинать темы
    Вы не можете отвечать на сообщения
    Вы не можете редактировать свои сообщения
    Вы не можете удалять свои сообщения
    Вы не можете голосовать в опросах
    Вы не можете прикреплять файлы к сообщениям
    Вы не можете скачивать файлы