BitTorrentTracker PerecTracker.org
BitTorrentTracker PerecTracker.org
    
Регистрация  ·  Вход
 
 · 
Забыли пароль?

  • Разрушение / Demolition (Жан-Марк Валле / Jean-Marc Vallée) [2016, США, Драма, комедия, HDRip] Dub (iTunes)

    Ответить на тему
     
    Автор Сообщение

    Light

    Создавать темы 19-Июл-2016 12:25

           

    [Цитировать]

    Разрушение / Demolition
    Страна: США
    Жанр: Драма, комедия
    Год выпуска: 2015
    Продолжительность: 01:40:53
    Перевод: Профессиональный (дублированный) iTunes
    Cубтитры: нет
    Режиссер: Жан-Марк Валле / Jean-Marc Vallée
    В ролях: Джейк Джилленхол, Наоми Уоттс, Крис Купер, Джуда Льюис, С.Дж. Уилсон, Полли Дрэйпер, Мэлаки Клири, Дебра Монк, Хезер Линд, Уасс М. Стивенс
    Описание: Дэвис является успешным инвестиционным банкиром, который пытается справиться с потерей любимой супруги, погибшей в трагической автокатастрофе. Несмотря на давление окружающих, которые желают вернуть Дэвиса к нормальной жизни, герой все больше погружается в эмоциональную пропасть из-за своего горя. Мужчина пытается понять, когда все пошло под откос, когда он допустил серьезную ошибку, превратившую его жизнь в сплошной кошмар. С этими мрачными мыслями он просыпается каждый день. Дэвис доходит до самого края, но неожиданно ему протягивают руку помощи. Спасение приходит внезапно со стороны женщины по имени Карен, с которой герой знакомится совершенно случайным образом. С помощью Карен и ее сына Криса герой начинает налаживать свою жизнь, исправлять испорченные отношения и вновь превращаться в человека, которым был раньше.

    Сэмпл: http://multi-up.com/1110323
    Качество видео: HDRip
    Формат видео: AVI
    Видео: XviD 73, 720x304, (2,35:1), 23,976 fps, 1684 Кбит/с, 8 бит
    Аудио: Русский (AC-3, 6 ch (Front: L C R, Side: L R, LFE), 48,0 KHz, 384 Kbps)

    MediaInfo

    Общее
    Полное имя : F:\Видеофильмы\В и д е о\Разрушение (драма, комедия 2015г).avi
    Формат : AVI
    Формат/Информация : Audio Video Interleave
    Размер файла : 1,46 Гбайт
    Продолжительность : 1 ч. 40 м.
    Общий поток : 2075 Кбит/сек
    Видео
    Идентификатор : 0
    Формат : MPEG-4 Visual
    Профиль формата : Advanced Simple@L5
    Параметр BVOP формата : 1
    Параметр QPel формата : Нет
    Параметр GMC формата : Без точки перехода
    Параметр матрицы формата : Выборочная
    Идентификатор кодека : XVID
    Идентификатор кодека/Подсказка : XviD
    Продолжительность : 1 ч. 40 м.
    Битрейт : 1684 Кбит/сек
    Ширина : 720 пикселей
    Высота : 304 пикселя
    Соотношение сторон : 2,35:1
    Частота кадров : 23,976 (24000/1001) кадра/сек
    Цветовое пространство : YUV
    Субдискретизация насыщенности : 4:2:0
    Битовая глубина : 8 бит
    Тип развёртки : Прогрессивная
    Метод сжатия : С потерями
    Бит/(Пиксели*Кадры) : 0.321
    Размер потока : 1,19 Гбайт (81%)
    Библиотека кодирования : XviD 73
    Аудио
    Идентификатор : 1
    Формат : AC-3
    Формат/Информация : Audio Coding 3
    Расширение режима : CM (complete main)
    Параметр Endianness формата : Big
    Идентификатор кодека : 2000
    Продолжительность : 1 ч. 40 м.
    Вид битрейта : Постоянный
    Битрейт : 384 Кбит/сек
    Каналы : 6 каналов
    Расположение каналов : Front: L C R, Side: L R, LFE
    Частота : 48,0 КГц
    Частота кадров : 31,250 кадров/сек (1536 spf)
    Метод сжатия : С потерями
    Размер потока : 277 Мбайт (19%)
    Выравнивание : Соединение по промежуткам
    Продолжительность промежутка : 64 мс. (1,53 видеокадра)
    Время предзагрузки промежутка : 192 мс.
    Заголовок : iTunes

    Скриншот c названием фильма

    Скриншоты

    Скачать .torrent

    Скачать торрент-файл бесплатно и на максимальной скорости!

    Как скачивать? · Что такое торрент? · Рейтинг и ограничения

    !ВНИМАНИЕ!
    Сайт не распространяет и не хранит электронные версии произведений, а занимается лишь лишь предоставлением доступа к создаваемому пользователями каталогу ссылок на торрент-файлы, которые содержат только списки хеш-сумм, убедительная просьба с жалобами обращаться напрямую к пользователю. Файлы для обмена на трекере предоставлены пользователями сайта, и администрация не несёт ответственности за их содержание. Просьба не заливать файлы, защищенные авторскими правами, а также файлы нелегального содержания!


    _________________
    [Профиль] [ЛС]
    Показать сообщения:    
    Ответить на тему

    Текущее время: Сегодня, в 22:21

    Часовой пояс: GMT + 2



    Вы не можете начинать темы
    Вы не можете отвечать на сообщения
    Вы не можете редактировать свои сообщения
    Вы не можете удалять свои сообщения
    Вы не можете голосовать в опросах
    Вы не можете прикреплять файлы к сообщениям
    Вы не можете скачивать файлы