BitTorrentTracker PerecTracker.org
BitTorrentTracker PerecTracker.org
    
Регистрация  ·  Вход
 
 · 
Забыли пароль?

  • Оно / It Follows (Дэвид Роберт Митчелл / David Robert Mitchell) [2014, США, ужасы, триллер, детектив, BDRip-AVC] Dub (iTunes) + Sub Rus

    Ответить на тему
     
    Автор Сообщение

    Light

    Создавать темы 19-Июл-2016 08:05

           

    [Цитировать]

    -Оно / It Follows-Страна: США
    Жанр: ужасы, триллер, детектив
    Год выпуска: 2014
    Продолжительность: 01:40:12-Перевод: Профессиональный (дублированный) iTunes
    Cубтитры: русские
    Оригинальная аудиодорожка: нет-Режиссер: Дэвид Роберт Митчелл / David Robert Mitchell
    В ролях: Кейр Гилкрист, Лорен Басс, Оливия Луккарди, Лили Сепе, Майка Монро, Джейк Вири, Дэниэл Дзоватто, Чарльз Гертнер, Бэйли Спрай-Описание: После сексуальной связи 19-летнюю девушку по имени Джей начинают мучить странные видения и непреодолимое чувство того, что кто-то или что-то за ней следит...-Сэмпл | | -Качество видео: BDRip-AVC (BDRemux 1080p)
    Формат видео: MKV
    Видео: AVC, 984x410 (2.40:1), 1639 kbps, 23,976 fps, 0,169 bit/pixel
    Аудио: AC3 / 5.1 / 48 kHz / 384 kbps / 16 bit
    Формат субтитров: softsub (SRT)

    Релиз


    Рип: potroks

    MediaInfo

    General
    Unique ID : 244340975677029580540974242125690140755 (0xB7D25C341529C3B1957B46FD316B7853)
    Complete name : D:\Фильмы\1\1\Ono.2015.RUS.BDRip.x264.-HELLYWOOD.mkv
    Format : Matroska
    Format version : Version 4 / Version 2
    File size : 1.42 GiB
    Duration : 1h 40mn
    Overall bit rate : 2 025 Kbps
    Movie name : It Follows (2014) - HELLYWOOD
    Encoded date : UTC 2010-02-22 21:41:31
    Writing application : mkvmerge v5.8.0 ('No Sleep / Pillow') built on Sep 30 2012 10:57:14
    Writing library : libebml v1.3.0 + libmatroska v1.4.0
    Video
    ID : 1
    Format : AVC
    Format/Info : Advanced Video Codec
    Format profile : High@L4.1
    Format settings, CABAC : Yes
    Format settings, ReFrames : 12 frames
    Codec ID : V_MPEG4/ISO/AVC
    Duration : 1h 40mn
    Bit rate : 1 639 Kbps
    Width : 984 pixels
    Height : 410 pixels
    Display aspect ratio : 2.40:1
    Frame rate mode : Constant
    Frame rate : 23.976 fps
    Color space : YUV
    Chroma subsampling : 4:2:0
    Bit depth : 8 bits
    Scan type : Progressive
    Bits/(Pixel*Frame) : 0.169
    Stream size : 1.12 GiB (79%)
    Title : potroks
    Writing library : x264 core 146 r2538 121396c
    Encoding settings : cabac=1 / ref=12 / deblock=1:-2:-2 / analyse=0x3:0x113 / me=umh / subme=11 / psy=1 / psy_rd=1.05:0.10 / mixed_ref=1 / me_range=48 / chroma_me=1 / trellis=2 / 8x8dct=1 / cqm=0 / deadzone=21,11 / fast_pskip=0 / chroma_qp_offset=-3 / threads=9 / lookahead_threads=2 / sliced_threads=0 / nr=0 / decimate=1 / interlaced=0 / bluray_compat=0 / constrained_intra=0 / bframes=13 / b_pyramid=2 / b_adapt=2 / b_bias=0 / direct=3 / weightb=1 / open_gop=0 / weightp=2 / keyint=250 / keyint_min=23 / scenecut=40 / intra_refresh=0 / rc_lookahead=60 / rc=2pass / mbtree=0 / bitrate=1639 / ratetol=1.0 / qcomp=0.70 / qpmin=0 / qpmax=69 / qpstep=4 / cplxblur=20.0 / qblur=0.5 / vbv_maxrate=14000 / vbv_bufsize=14000 / nal_hrd=none / filler=0 / ip_ratio=1.35 / pb_ratio=1.25 / aq=1:0.80
    Language : English
    Default : Yes
    Forced : No
    Audio
    ID : 2
    Format : AC-3
    Format/Info : Audio Coding 3
    Mode extension : CM (complete main)
    Format settings, Endianness : Big
    Codec ID : A_AC3
    Duration : 1h 40mn
    Bit rate mode : Constant
    Bit rate : 384 Kbps
    Channel(s) : 6 channels
    Channel positions : Front: L C R, Side: L R, LFE
    Sampling rate : 48.0 KHz
    Bit depth : 16 bits
    Compression mode : Lossy
    Stream size : 275 MiB (19%)
    Title : Dub | DD 5.1 @ 384 kbps - iTunes
    Language : Russian
    Default : Yes
    Forced : No
    Text
    ID : 3
    Format : UTF-8
    Codec ID : S_TEXT/UTF8
    Codec ID/Info : UTF-8 Plain Text
    Title : A.Matveev
    Language : Russian
    Default : No
    Forced : No
    Menu
    00:00:00.000 : en:Chapter 01
    00:03:53.024 : en:Chapter 02
    00:08:46.901 : en:Chapter 03
    00:13:58.671 : en:Chapter 04
    00:22:05.115 : en:Chapter 05
    00:27:20.930 : en:Chapter 06
    00:32:12.513 : en:Chapter 07
    00:44:38.467 : en:Chapter 08
    00:49:14.993 : en:Chapter 09
    00:53:58.485 : en:Chapter 10
    01:02:48.055 : en:Chapter 11
    01:07:45.019 : en:Chapter 12
    01:16:13.485 : en:Chapter 13
    01:26:19.007 : en:Chapter 14
    01:31:18.514 : en:Chapter 15
    01:35:42.194 : en:Chapter 16

    Скриншоты

    Скачать .torrent

    Скачать торрент-файл бесплатно и на максимальной скорости!

    Как скачивать? · Что такое торрент? · Рейтинг и ограничения

    !ВНИМАНИЕ!
    Сайт не распространяет и не хранит электронные версии произведений, а занимается лишь лишь предоставлением доступа к создаваемому пользователями каталогу ссылок на торрент-файлы, которые содержат только списки хеш-сумм, убедительная просьба с жалобами обращаться напрямую к пользователю. Файлы для обмена на трекере предоставлены пользователями сайта, и администрация не несёт ответственности за их содержание. Просьба не заливать файлы, защищенные авторскими правами, а также файлы нелегального содержания!


    _________________
    [Профиль] [ЛС]
    Показать сообщения:    
    Ответить на тему

    Текущее время: Сегодня, в 10:30

    Часовой пояс: GMT + 2



    Вы не можете начинать темы
    Вы не можете отвечать на сообщения
    Вы не можете редактировать свои сообщения
    Вы не можете удалять свои сообщения
    Вы не можете голосовать в опросах
    Вы не можете прикреплять файлы к сообщениям
    Вы не можете скачивать файлы