Register  ·  Log in
Forgot password?

  • Новые приключения Белоснежки / Белоснежка 2 / Happily Ever After (Джон Хаули / John Howley) [1988, США, Анимация, DVDRip] AVO Александр Кашкин (Первомайский)

    Reply to topic
    Author Message


    Post 18-Jul-2016 21:20



    Новые приключения Белоснежки / Белоснежка 2 / Happily Ever After
    Страна: США
    Жанр: Анимация
    Продолжительность: 01:11:02
    Год выпуска: 1988
    Перевод: Авторский (одноголосый закадровый) Александр Кашкин (Первомайский)
    Русские субтитры: нет
    Режиссёр: Джон Хаули / John Howley
    Роли озвучивали: Эдвард Эснер, Ирена Кара, Кэрол Чэннинг, Дом ДеЛуис, Филлис Диллер, Жа Жа Габор, Линда Гэри, Джонатан Харрис, Майкл Хортон, Сэлли Келлермен
    Описание: Белоснежка собирается замуж за принца, но влюбленную пару похищает дракон. Счастливо выпав (в буквальном смысле слова) из его когтей она попадает на сей раз не к семи гномам, а к их кузинам…
    Доп. информация: Дорожка с А. Кашкиным синхронизирована и наложена ale_x2008 при помощи Adobe Audition, Sony Vegas и VirtualDubMod.
    За оцифрованную с VHS дорожку благодарим - d_rocker

    Качество: DVDRip
    Формат: AVI
    Видео: XviD build 73, 704x528 (1.33:1), 25.00 fps, 1992 kbps avg, 0.21 bit/pixel
    Аудио: AC3 Dolby Digital, 48000Hz, 2/0 (L,R) ch (mono), 192.00 kbps avg

    Подробные технические данные

    Новые приключения Белоснежки - Happily Ever After (by ale_x2008).aviFormat : AVIFormat/Info : Audio Video InterleaveFile size : 1.09 GiBDuration : 1h 11mnOverall bit rate : 2 195 KbpsMovie name : Новые приключения Белоснежки - Happily Ever After (by ale_x2008)Director : by ale_x2008Writing application : VirtualDubMod (build 2550/release)Copyright : Edich2Comment :
    VideoID : 0Format : MPEG-4 VisualFormat profile : Advanced Simple@L5Format settings, BVOP : 2Format settings, QPel : NoFormat settings, GMC : No warppointsFormat settings, Matrix : CustomCodec ID : XVIDCodec ID/Hint : XviDDuration : 1h 11mnBit rate : 1 993 KbpsWidth : 704 pixelsHeight : 528 pixelsDisplay aspect ratio : 4:3Frame rate : 25.000 fpsColor space : YUVChroma subsampling : 4:2:0Bit depth : 8 bitsScan type : ProgressiveCompression mode : LossyBits/(Pixel*Frame) : 0.214Stream size : 1 013 MiB (91%)Writing library : XviD 73
    AudioID : 1Format : AC-3Format/Info : Audio Coding 3Mode extension : CM (complete main)Format settings, Endianness : BigCodec ID : 2000Duration : 1h 11mnBit rate mode : ConstantBit rate : 192 KbpsChannel(s) : 2 channelsChannel positions : Front: L RSampling rate : 48.0 KHzFrame rate : 31.250 fps (1536 spf)Compression mode : LossyStream size : 97.5 MiB (9%)Alignment : Split accross interleavesInterleave, duration : 40 ms (1.00 video frame)Interleave, preload duratio : 500 ms


    Download .torrent

    Download free and at maximum speed!

    How to Download? · What is a torrent? · Ratings and Limitations

    The site does not extend and does not store electronic(digital) versions of products, and only gives access to a reference catalogue created by users on torrent-files which contain only lists of the hash-sums, the earnest entreaty, with complaints(abuse) to access directly to the user. Files for an exchange on tracker are given by users of a site, and the administration does not bear the responsibility for their maintenance. The request to not fill in the files protected by copyrights, and also files of the illegal maintenance!

    [Profile] [PM]
    Display posts from previous:    
    Reply to topic

    The time now is: Today 12:38

    All times are GMT + 3 Hours

    You cannot post new topics in this forum
    You cannot reply to topics in this forum
    You cannot edit your posts in this forum
    You cannot delete your posts in this forum
    You cannot vote in polls in this forum
    You cannot attach files in this forum
    You cannot download files in this forum