BitTorrentTracker PerecTracker.org
BitTorrentTracker PerecTracker.org
    
Регистрация  ·  Вход
 
 · 
Забыли пароль?

  • Новые приключения Белоснежки / Белоснежка 2 / Happily Ever After (Джон Хаули / John Howley) [1988, США, Анимация, DVDRip] AVO Александр Кашкин (Первомайский)

    Ответить на тему
     
    Автор Сообщение

    Flirldrerve

    Создавать темы 18-Июл-2016 20:20

           

    [Цитировать]

    Новые приключения Белоснежки / Белоснежка 2 / Happily Ever After
    Страна: США
    Жанр: Анимация
    Продолжительность: 01:11:02
    Год выпуска: 1988
    Перевод: Авторский (одноголосый закадровый) Александр Кашкин (Первомайский)
    Русские субтитры: нет
    Режиссёр: Джон Хаули / John Howley
    Роли озвучивали: Эдвард Эснер, Ирена Кара, Кэрол Чэннинг, Дом ДеЛуис, Филлис Диллер, Жа Жа Габор, Линда Гэри, Джонатан Харрис, Майкл Хортон, Сэлли Келлермен
    Описание: Белоснежка собирается замуж за принца, но влюбленную пару похищает дракон. Счастливо выпав (в буквальном смысле слова) из его когтей она попадает на сей раз не к семи гномам, а к их кузинам…
    Доп. информация: Дорожка с А. Кашкиным синхронизирована и наложена ale_x2008 при помощи Adobe Audition, Sony Vegas и VirtualDubMod.
    За оцифрованную с VHS дорожку благодарим - d_rocker

    Семпл: https://yadi.sk/i/3z2UoCLgtPsu4
    Качество: DVDRip
    Формат: AVI
    Видео: XviD build 73, 704x528 (1.33:1), 25.00 fps, 1992 kbps avg, 0.21 bit/pixel
    Аудио: AC3 Dolby Digital, 48000Hz, 2/0 (L,R) ch (mono), 192.00 kbps avg
    Субтитры:
    отсутствуют

    Подробные технические данные

    Новые приключения Белоснежки - Happily Ever After (by ale_x2008).aviFormat : AVIFormat/Info : Audio Video InterleaveFile size : 1.09 GiBDuration : 1h 11mnOverall bit rate : 2 195 KbpsMovie name : Новые приключения Белоснежки - Happily Ever After (by ale_x2008)Director : by ale_x2008Writing application : VirtualDubMod 1.5.10.3 (build 2550/release)Copyright : Edich2Comment : RuTracker.org
    VideoID : 0Format : MPEG-4 VisualFormat profile : Advanced Simple@L5Format settings, BVOP : 2Format settings, QPel : NoFormat settings, GMC : No warppointsFormat settings, Matrix : CustomCodec ID : XVIDCodec ID/Hint : XviDDuration : 1h 11mnBit rate : 1 993 KbpsWidth : 704 pixelsHeight : 528 pixelsDisplay aspect ratio : 4:3Frame rate : 25.000 fpsColor space : YUVChroma subsampling : 4:2:0Bit depth : 8 bitsScan type : ProgressiveCompression mode : LossyBits/(Pixel*Frame) : 0.214Stream size : 1 013 MiB (91%)Writing library : XviD 73
    AudioID : 1Format : AC-3Format/Info : Audio Coding 3Mode extension : CM (complete main)Format settings, Endianness : BigCodec ID : 2000Duration : 1h 11mnBit rate mode : ConstantBit rate : 192 KbpsChannel(s) : 2 channelsChannel positions : Front: L RSampling rate : 48.0 KHzFrame rate : 31.250 fps (1536 spf)Compression mode : LossyStream size : 97.5 MiB (9%)Alignment : Split accross interleavesInterleave, duration : 40 ms (1.00 video frame)Interleave, preload duratio : 500 ms

    Скриншоты


    Скачать .torrent

    Скачать торрент-файл бесплатно и на максимальной скорости!

    Как скачивать? · Что такое торрент? · Рейтинг и ограничения

    !ВНИМАНИЕ!
    Сайт не распространяет и не хранит электронные версии произведений, а занимается лишь лишь предоставлением доступа к создаваемому пользователями каталогу ссылок на торрент-файлы, которые содержат только списки хеш-сумм, убедительная просьба с жалобами обращаться напрямую к пользователю. Файлы для обмена на трекере предоставлены пользователями сайта, и администрация не несёт ответственности за их содержание. Просьба не заливать файлы, защищенные авторскими правами, а также файлы нелегального содержания!


    _________________
    [Профиль] [ЛС]
    Показать сообщения:    
    Ответить на тему

    Текущее время: Сегодня, в 00:28

    Часовой пояс: GMT + 2



    Вы не можете начинать темы
    Вы не можете отвечать на сообщения
    Вы не можете редактировать свои сообщения
    Вы не можете удалять свои сообщения
    Вы не можете голосовать в опросах
    Вы не можете прикреплять файлы к сообщениям
    Вы не можете скачивать файлы