BitTorrentTracker PerecTracker.org
BitTorrentTracker PerecTracker.org
    
Регистрация  ·  Вход
 
 · 
Забыли пароль?

  • Три / III (Павел Хвалеев / Pavel Khvaleev) [2015, Германия, Россия, ужасы, триллер, драма, BDRip-AVC] Original (Rus) + Ger + Sub (Eng)

    Ответить на тему
     
    Автор Сообщение

    Light

    Создавать темы 18-Июл-2016 20:20

           

    [Цитировать]

    Три / III
    «Чем ближе ко дну океана, тем он темнее»

    Страна: Германия, Россия
    Жанр: ужасы, триллер, драма
    Год выпуска: 2015
    Продолжительность: 01:20:25
    Перевод: Не требуется (русский) [Blu-ray GER]
    Субтитры: английские
    Режиссер: Павел Хвалеев / Pavel Khvaleev
    В ролях: Полина Давыдова, Евгений Гагарин, Любовь Игнатушко
    Описание:
    В маленький европейский городок, в котором живут сёстры Айя и Мирра, пришла неизвестная болезнь, которая унесла жизни многих горожан. После смерти мамы заболевает младшая Мирра. Понимая, что традиционная медицина бессильна перед болезнью сестры, Айя обращается за помощью к близкому другу семьи, приходскому священнику отцу Герману. В его доме Айя случайно находит книги далёкие от традиционной религии.
    Она узнаёт, что только проникнув в больное подсознание Мирры и отыскав истинную причину её болезни, она получит шанс на спасение сестры. Айя готова пройти страшный ритуал, погрузиться в недра подсознания и встретиться лицом к лицу с обитающими там демонами. Но сможет ли она справиться с собственным страхом, когда узнает все тайны прошлой жизни сестры?
    Автор рипа: stalkerok
    Сэмпл
    Качество видео: BDRip-AVC [Три / III (2015) Blu-ray GER 1080p AVC DTS-HD 2.0 HDCLUB]
    Формат видео: MKV
    Видео: 1963 Кбит/сек, 1152x490 (2.35:1), 24 кадр/сек, AVC
    Аудио №1: русский, 192 Кбит/сек, 48 КГц, 16 бит, 2.0, AC3
    Аудио №2: немецкий, 448 Кбит/сек, 48 КГц, 16 бит, 5.1, AC3 (Дубляж Blu-ray GER)
    Навигация по главам: есть

    MediaInfo

    General
    Unique ID : 200911939518065068599869399263503087944 (0x97263B67A599E948B7DFCBD3FB927948)
    Complete name : M:\Rips\III\Tri.2015.BDRip-AVC.1.45Gb...stalkerok.new-team.mkv
    Format : Matroska
    File size : 1.46 GiB
    Duration : 1h 20mn
    Overall bit rate : 2 603 Kbps
    Movie name : Tri (2015) (New-Team) (Rip by Stalker oK)
    Encoded date : UTC 2015-11-11 15:49:27
    Writing application : mkvmerge v7.9.0 ('Birds') 64bit
    Writing library : libebml v1.3.1 + libmatroska v1.4.2
    Video
    ID : 1
    Format : AVC
    Format/Info : Advanced Video Codec
    Format profile : High@L4.1
    Format settings, CABAC : Yes
    Format settings, ReFrames : 13 frames
    Codec ID : V_MPEG4/ISO/AVC
    Duration : 1h 20mn
    Bit rate : 1 963 Kbps
    Width : 1 152 pixels
    Height : 490 pixels
    Display aspect ratio : 2.35:1
    Frame rate : 24.000 fps
    Color space : YUV
    Chroma subsampling : 4:2:0
    Bit depth : 8 bits
    Scan type : Progressive
    Bits/(Pixel*Frame) : 0.145
    Stream size : 1.07 GiB (73%)
    Writing library : x264 core 146 r2538kMod 121396c
    Encoding settings : cabac=1 / ref=13 / deblock=1:-3:-3 / analyse=0x3:0x133 / me=umh / subme=11 / psy=1 / fade_compensate=0.00 / psy_rd=1.00:0.15 / mixed_ref=1 / me_range=48 / chroma_me=1 / trellis=2 / 8x8dct=1 / cqm=0 / deadzone=21,11 / fast_pskip=0 / chroma_qp_offset=-3 / threads=12 / lookahead_threads=3 / sliced_threads=0 / nr=0 / decimate=0 / interlaced=0 / bluray_compat=0 / constrained_intra=0 / fgo=0 / bframes=14 / b_pyramid=2 / b_adapt=2 / b_bias=0 / direct=3 / weightb=1 / open_gop=0 / weightp=2 / keyint=240 / keyint_min=24 / scenecut=40 / intra_refresh=0 / rc_lookahead=60 / rc=2pass / mbtree=0 / bitrate=1963 / ratetol=1.0 / qcomp=0.70 / qpmin=0 / qpmax=69 / qpstep=4 / cplxblur=20.0 / qblur=0.5 / vbv_maxrate=50000 / vbv_bufsize=62500 / nal_hrd=none / filler=0 / ip_ratio=1.40 / pb_ratio=1.30 / aq=3:0.90
    Audio #1
    ID : 2
    Format : AC-3
    Format/Info : Audio Coding 3
    Mode extension : CM (complete main)
    Codec ID : A_AC3
    Duration : 1h 20mn
    Bit rate mode : Constant
    Bit rate : 192 Kbps
    Channel(s) : 2 channels
    Channel positions : Front: L R
    Sampling rate : 48.0 KHz
    Bit depth : 16 bits
    Compression mode : Lossy
    Stream size : 110 MiB (7%)
    Language : Russian
    Audio #2
    ID : 3
    Format : AC-3
    Format/Info : Audio Coding 3
    Mode extension : CM (complete main)
    Codec ID : A_AC3
    Duration : 1h 20mn
    Bit rate mode : Constant
    Bit rate : 448 Kbps
    Channel(s) : 6 channels
    Channel positions : Front: L C R, Side: L R, LFE
    Sampling rate : 48.0 KHz
    Bit depth : 16 bits
    Compression mode : Lossy
    Stream size : 258 MiB (17%)
    Language : German
    Text
    ID : 4
    Format : UTF-8
    Codec ID : S_TEXT/UTF8
    Codec ID/Info : UTF-8 Plain Text
    Language : English
    Menu
    00:00:00.000 : en:Chapter 1
    00:05:22.958 : en:Chapter 2
    00:11:29.083 : en:Chapter 3
    00:19:20.208 : en:Chapter 4
    00:31:55.125 : en:Chapter 5
    00:40:51.958 : en:Chapter 6
    00:50:59.625 : en:Chapter 7
    01:01:12.750 : en:Chapter 8

    Скриншоты

    Скачать .torrent

    Скачать торрент-файл бесплатно и на максимальной скорости!

    Как скачивать? · Что такое торрент? · Рейтинг и ограничения

    !ВНИМАНИЕ!
    Сайт не распространяет и не хранит электронные версии произведений, а занимается лишь лишь предоставлением доступа к создаваемому пользователями каталогу ссылок на торрент-файлы, которые содержат только списки хеш-сумм, убедительная просьба с жалобами обращаться напрямую к пользователю. Файлы для обмена на трекере предоставлены пользователями сайта, и администрация не несёт ответственности за их содержание. Просьба не заливать файлы, защищенные авторскими правами, а также файлы нелегального содержания!


    _________________
    [Профиль] [ЛС]
    Показать сообщения:    
    Ответить на тему

    Текущее время: Сегодня, в 22:26

    Часовой пояс: GMT + 2



    Вы не можете начинать темы
    Вы не можете отвечать на сообщения
    Вы не можете редактировать свои сообщения
    Вы не можете удалять свои сообщения
    Вы не можете голосовать в опросах
    Вы не можете прикреплять файлы к сообщениям
    Вы не можете скачивать файлы