BitTorrentTracker PerecTracker.org
BitTorrentTracker PerecTracker.org
    
Регистрация  ·  Вход
 
 · 
Забыли пароль?

  • Королева пустыни / Queen of the Desert (Вернер Херцог / Werner Herzog) [2015, США, Марокко, история, драма, биография, HDRip] MVO

    Ответить на тему
     
    Автор Сообщение

    Light

    Создавать темы 18-Июл-2016 20:20

           

    [Цитировать]

    Королева пустыни / Queen of the Desert
    Страна: США, Марокко
    Жанр: История, драма, биография
    Год выпуска: 2015
    Продолжительность: 02:08:12
    Перевод: Любительский (двухголосый закадровый)
    Cубтитры: нет
    Режиссер: Вернер Херцог / Werner Herzog
    В ролях: Джеймс Франко, Николь Кидман, Роберт Паттинсон, Дэмиэн Льюис, Дженни Агаттер, Холли Эрл, Дэвид Колдер, Бет Годдар, Джихад Абду, Марк Льюис Джон
    Описание: Она с самого рождения была настоящей звездой, королевой высшего общества, успешная студентка Оксфорда, перспективной ученицей в сфере археологии и картографией. А еще интересовалась политикой и любовью. Хотя любовью конечно в первую очередь. Именно поэтому, перебравшись вслед за любимым на другой конец света, Гертруда Белл выбрала необычный опасный и непростой путь. Теперь она известная на весь мир «Королева пустыни» и даже когда любимый уйдет в мир иной, женщина смело решит продолжить его путь, хотя точно знает что в суровом мире восточных мужчин, добиться уважения будет совсем не просто. Но она точно справиться и вскоре добьется невероятных результатов, приложив свою хрупкую ручку к созданию Ирана и Иордании.
    Внимание перезалив : -- Рип с более качественного исходника...
    Рейтинг : -- IMDB
    Сэмпл: http://multi-up.com/1110344
    Качество видео: WEB-DLRip
    Формат видео: AVI
    Видео: XviD 73, 720x304, (2,35:1), 24,000 fps, 1431 Кбит/сек, 8 бит
    Аудио: Русский (AC-3, 2 ch (Front: L R), 48,0 KHz, 192 Kbps)

    MediaInfo

    Общее
    Полное имя : F:\Видеофильмы\В и д е о\Королева пустыни (история, драма 2015г).avi
    Формат : AVI
    Формат/Информация : Audio Video Interleave
    Размер файла : 1,46 Гбайт
    Продолжительность : 2 ч. 8 м.
    Общий поток : 1632 Кбит/сек
    Программа кодирования : VirtualDubMod 1.5.10.3 (build 2550/release)
    Видео
    Идентификатор : 0
    Формат : MPEG-4 Visual
    Профиль формата : Advanced Simple@L5
    Параметр BVOP формата : 2
    Параметр QPel формата : Нет
    Параметр GMC формата : Без точки перехода
    Параметр матрицы формата : Выборочная
    Идентификатор кодека : XVID
    Идентификатор кодека/Подсказка : XviD
    Продолжительность : 2 ч. 8 м.
    Битрейт : 1431 Кбит/сек
    Ширина : 720 пикселей
    Высота : 304 пикселя
    Соотношение сторон : 2,35:1
    Частота кадров : 24,000 кадра/сек
    Цветовое пространство : YUV
    Субдискретизация насыщенности : 4:2:0
    Битовая глубина : 8 бит
    Тип развёртки : Прогрессивная
    Метод сжатия : С потерями
    Бит/(Пиксели*Кадры) : 0.272
    Размер потока : 1,28 Гбайт (88%)
    Библиотека кодирования : XviD 73
    Аудио
    Идентификатор : 1
    Формат : AC-3
    Формат/Информация : Audio Coding 3
    Расширение режима : CM (complete main)
    Параметр Endianness формата : Big
    Идентификатор кодека : 2000
    Продолжительность : 2 ч. 8 м.
    Вид битрейта : Постоянный
    Битрейт : 192 Кбит/сек
    Каналы : 2 канала
    Расположение каналов : Front: L R
    Частота : 48,0 КГц
    Частота кадров : 31,250 кадров/сек (1536 spf)
    Метод сжатия : С потерями
    Размер потока : 176 Мбайт (12%)
    Выравнивание : Разделение по промежуткам
    Продолжительность промежутка : 42 мс. (1,00 видеокадр)
    Время предзагрузки промежутка : 500 мс.
    Язык : Не определен

    Скриншот c названием фильма

    Скриншоты

    Скачать .torrent

    Скачать торрент-файл бесплатно и на максимальной скорости!

    Как скачивать? · Что такое торрент? · Рейтинг и ограничения

    !ВНИМАНИЕ!
    Сайт не распространяет и не хранит электронные версии произведений, а занимается лишь лишь предоставлением доступа к создаваемому пользователями каталогу ссылок на торрент-файлы, которые содержат только списки хеш-сумм, убедительная просьба с жалобами обращаться напрямую к пользователю. Файлы для обмена на трекере предоставлены пользователями сайта, и администрация не несёт ответственности за их содержание. Просьба не заливать файлы, защищенные авторскими правами, а также файлы нелегального содержания!


    _________________
    [Профиль] [ЛС]
    Показать сообщения:    
    Ответить на тему

    Текущее время: Сегодня, в 12:23

    Часовой пояс: GMT + 2



    Вы не можете начинать темы
    Вы не можете отвечать на сообщения
    Вы не можете редактировать свои сообщения
    Вы не можете удалять свои сообщения
    Вы не можете голосовать в опросах
    Вы не можете прикреплять файлы к сообщениям
    Вы не можете скачивать файлы