BitTorrentTracker PerecTracker.org
BitTorrentTracker PerecTracker.org
    
Регистрация  ·  Вход
 
 · 
Забыли пароль?

  • Бэтмен против Супермена: На заре справедливости / Batman v Superman: Dawn of Justice (Зак Снайдер / Zack Snyder) [2016, США, Фантастика, боевик, приключения, BDRip] [Расширенная версия / Ultimate Edition] Dub + (Вставки MVO)

    Ответить на тему
     
    Автор Сообщение

    rechyn

    Создавать темы 18-Июл-2016 07:20

           

    [Цитировать]

    Бэтмен против Супермена: На заре справедливости / Batman v Superman: Dawn of Justice-Год выхода: 2016
    Выпущено: США / Warner Bros. Pictures
    Жанр: фантастика, боевик, приключения
    Продолжительность: 03:02:33
    Перевод: Профессиональный (дублированный) + вставки MVO на эпизоды расширенной версии
    Субтитры: нет-Режиссер:
    Зак Снайдер / Zack Snyder-В ролях:
    Генри Кавилл, Бен Аффлек, Галь Гадот, Эми Адамс, Джесси Айзенберг, Джереми Айронс, Дайан Лэйн, Лоренс Фишбёрн, Холли Хантер, Скут МакНэйри, Каллэн Мулвей, Тао Окамото, Брэндон Спинк, Лорен Коэн, Алан Д. Первин, Марк Эдвард Тейлор, Хью Магвайр, Майкл Шеннон, Ханна Дворкин, Тиффани Л. Эддисон-О фильме:
    Опасаясь, что действия богоподобного супергероя так и останутся бесконтрольными, грозный и могущественный страж Готэм Сити бросает вызов самому почитаемому в наши дни спасителю Метрополиса, в то время как весь остальной мир решает, какой герой ему по-настоящему нужен. И пока Бэтмен и Супермен пребывают в состоянии войны друг с другом, возникает новая угроза, которая ставит человечество под самую большую опасность, с которой оно когда-либо сталкивалось.-Релиз групп
    | | IMDB | КиноПоиск | Сэмпл |-Качество: BDRip [Batman v Superman Dawn of Justice 2016 Extended 1080p Blu-ray AVC TrueHD Atmos 7.1]
    Формат: AVI
    Видео: 688x288 (2.39:1), 23.976 fps, XviD build 67 ~1008 kbps avg, 0.21 bit/pixel
    Аудио: 48 kHz, MPEG Layer 3, 2 ch, ~128.00 kbps avg-

    Скриншоты

    -

    MediaInfo

    Общее
    Полное имя                               : D:\Batman_v_Superman_2016_BDRip_[Ultimate_Edition]_by_Dalemake.avi
    Формат                                   : AVI
    Формат/Информация                        : Audio Video Interleave
    Размер файла                             : 1,46 Гбайт
    Продолжительность                        : 3 ч. 2 м.
    Общий поток                              : 1146 Кбит/сек
    Программа кодирования                    : VirtualDubMod 1.5.10.3 | www.virtualdub-fr.org || (build 2550/release)
    Библиотека кодирования                   : VirtualDubMod build 2550/release
    Видео
    Идентификатор                            : 0
    Формат                                   : MPEG-4 Visual
    Профиль формата                          : Advanced Simple@L5
    Параметр BVOP формата                    : 1
    Параметр QPel формата                    : Нет
    Параметр GMC формата                     : Без точки перехода
    Параметр матрицы формата                 : Выборочная
    Идентификатор кодека                     : XVID
    Идентификатор кодека/Подсказка           : XviD
    Продолжительность                        : 3 ч. 2 м.
    Битрейт                                  : 1009 Кбит/сек
    Ширина                                   : 688 пикселей
    Высота                                   : 288 пикселей
    Соотношение сторон                       : 2,40:1
    Частота кадров                           : 23,976 кадра/сек
    Цветовое пространство                    : YUV
    Субдискретизация насыщенности            : 4:2:0
    Битовая глубина                          : 8 бит
    Тип развёртки                            : Прогрессивная
    Метод сжатия                             : С потерями
    Бит/(Пиксели*Кадры)                      : 0.212
    Размер потока                            : 1,29 Гбайт (88%)
    Библиотека кодирования                   : XviD 67
    Аудио
    Идентификатор                            : 1
    Формат                                   : MPEG Audio
    Версия формата                           : Version 1
    Профиль формата                          : Layer 3
    Идентификатор кодека                     : 55
    Идентификатор кодека/Подсказка           : MP3
    Продолжительность                        : 3 ч. 2 м.
    Вид битрейта                             : Постоянный
    Битрейт                                  : 128 Кбит/сек
    Каналы                                   : 2 канала
    Частота                                  : 48,0 КГц
    Метод сжатия                             : С потерями
    Размер потока                            : 167 Мбайт (11%)
    Выравнивание                             : Соединение по промежуткам
    Продолжительность промежутка             : 42  мс. (1,00 видеокадр)
    Время предзагрузки промежутка            : 504  мс.
    Библиотека кодирования                   : LAME3.99r
    Настройки программы                      : -m s -V 4 -q 2 -lowpass 17 -b 128
    -
    Скачать .torrent

    Скачать торрент-файл бесплатно и на максимальной скорости!

    Как скачивать? · Что такое торрент? · Рейтинг и ограничения

    !ВНИМАНИЕ!
    Сайт не распространяет и не хранит электронные версии произведений, а занимается лишь лишь предоставлением доступа к создаваемому пользователями каталогу ссылок на торрент-файлы, которые содержат только списки хеш-сумм, убедительная просьба с жалобами обращаться напрямую к пользователю. Файлы для обмена на трекере предоставлены пользователями сайта, и администрация не несёт ответственности за их содержание. Просьба не заливать файлы, защищенные авторскими правами, а также файлы нелегального содержания!


    _________________
    [Профиль] [ЛС]
    Показать сообщения:    
    Ответить на тему

    Текущее время: Сегодня, в 11:37

    Часовой пояс: GMT + 2



    Вы не можете начинать темы
    Вы не можете отвечать на сообщения
    Вы не можете редактировать свои сообщения
    Вы не можете удалять свои сообщения
    Вы не можете голосовать в опросах
    Вы не можете прикреплять файлы к сообщениям
    Вы не можете скачивать файлы