Register  ·  Log in
Forgot password?

  • Роковое влечение / Éperdument (Пьер Годо / Pierre Godeau) [2016, Франция, Бельгия, драма, WEB-DLRip] MVO (iTunes)

    Reply to topic
    Author Message


    Post 18-Jul-2016 08:20



    Роковое влечение / Éperdument
    Страна: Франция, Бельгия
    Жанр: драма
    Год выпуска: 2016
    Продолжительность: 01:50:15
    Перевод: Профессиональный (многоголосый закадровый) - (iTunes)
    Cубтитры: нет
    Оригинальная аудиодорожка: нет
    Режиссер: Пьер Годо / Pierre Godeau
    В ролях: Адель Экзаркопулос, Гийом Гальенн, Стефани Клео, Aliénor Poisson, Cyrielle Martinez, Selma Mansouri, Сабила Муссадек, Жюли Мулье, Мари Ривьер, Марилин Ивен
    Описание: Его жизнь была беззаботной и счастливой — прекрасная работа, любящая жена, дочь. Но он готов потерять все ради нее. Кто она? Невинная девушка или сексуальная искусительница, легко манипулирующая мужчинами?
    Качество видео: WEB-DLRip
    Исходник: [Rokovoe.vle4enie.2O16.P.WEBDL.720p kinozal]
    Формат видео: AVI
    Видео: 720x304 (2.37:1), 24.000 fps, XviD build 65 ~1693 kbps avg, 0.32 bit/pixel
    Аудио: 48 kHz, AC3 Dolby Digital, 2/0 (L,R) ch, ~192 kbps


    Complete name : D:\Фильмы\Éperdument _2016_Toriyal_Rutracker.avi
    Format : AVI
    Format/Info : Audio Video Interleave
    File size : 1.46 GiB
    Duration : 1h 50mn
    Overall bit rate : 1 895 Kbps
    Writing application : VirtualDubMod | || (build 2550/release)
    Writing library : VirtualDubMod build 2550/release
    ID : 0
    Format : MPEG-4 Visual
    Format profile : Advanced Simple@L5
    Format settings, BVOP : 1
    Format settings, QPel : No
    Format settings, GMC : No warppoints
    Format settings, Matrix : Custom
    Codec ID : XVID
    Codec ID/Hint : XviD
    Duration : 1h 50mn
    Bit rate : 1 693 Kbps
    Width : 720 pixels
    Height : 304 pixels
    Display aspect ratio : 2.35:1
    Frame rate : 24.000 fps
    Color space : YUV
    Chroma subsampling : 4:2:0
    Bit depth : 8 bits
    Scan type : Progressive
    Compression mode : Lossy
    Bits/(Pixel*Frame) : 0.322
    Stream size : 1.30 GiB (89%)
    Writing library : XviD 65
    ID : 1
    Format : AC-3
    Format/Info : Audio Coding 3
    Mode extension : CM (complete main)
    Format settings, Endianness : Big
    Codec ID : 2000
    Duration : 1h 50mn
    Bit rate mode : Constant
    Bit rate : 192 Kbps
    Channel(s) : 2 channels
    Channel positions : Front: L R
    Sampling rate : 48.0 KHz
    Frame rate : 31.250 fps (1536 spf)
    Compression mode : Lossy
    Stream size : 151 MiB (10%)
    Alignment : Split accross interleaves
    Interleave, duration : 42 ms (1.00 video frame)
    Interleave, preload duratio : 500 ms


    Download .torrent

    Download free and at maximum speed!

    How to Download? · What is a torrent? · Ratings and Limitations

    The site does not extend and does not store electronic(digital) versions of products, and only gives access to a reference catalogue created by users on torrent-files which contain only lists of the hash-sums, the earnest entreaty, with complaints(abuse) to access directly to the user. Files for an exchange on tracker are given by users of a site, and the administration does not bear the responsibility for their maintenance. The request to not fill in the files protected by copyrights, and also files of the illegal maintenance!

    [Profile] [PM]
    Display posts from previous:    
    Reply to topic

    The time now is: Today 14:16

    All times are GMT + 3 Hours

    You cannot post new topics in this forum
    You cannot reply to topics in this forum
    You cannot edit your posts in this forum
    You cannot delete your posts in this forum
    You cannot vote in polls in this forum
    You cannot attach files in this forum
    You cannot download files in this forum