BitTorrentTracker PerecTracker.org
BitTorrentTracker PerecTracker.org
    
Регистрация  ·  Вход
 
 · 
Забыли пароль?

  • Бэтмен против Супермена: На заре Справедливости / Batman v Superman: Dawn of Justice (Зак Снайдер / Zack Snyder) [2016, США, фантастика, боевик, приключения, BDRip-AVC] [Расширенная версия / Ultimate Edition] VO (Lord666)

    Ответить на тему
     
    Автор Сообщение

    rechyn

    Создавать темы 18-Июл-2016 07:20

           

    [Цитировать]

    Бэтмен против Супермена: На заре Справедливости (Режиссерская версия) / Batman v Superman: Dawn of Justice (Extended Ultimate Edition)
    Страна: США
    Жанр: фантастика, боевик, приключения
    Год выпуска: 2016
    Продолжительность: 03:02:33
    Перевод: Одноголосый закадровый lord666
    Cубтитры: нет
    Режиссер: Зак Снайдер / Zack Snyder
    В ролях: Генри Кавилл, Бен Аффлек, Галь Гадот, Эми Адамс, Джесси Айзенберг, Джереми Айронс, Дайан Лэйн, Лоренс Фишбёрн, Холли Хантер, Скут МакНэйри, Каллэн Мулвей, Тао Окамото, Брэндон Спинк, Лорен Коэн, Алан Д. Первин, Марк Эдвард Тейлор, Хью Магвайр, Майкл Шеннон, Ханна Дворкин, Тиффани Л. Эддисон
    Описание: Опасаясь, что действия богоподобного супергероя так и останутся бесконтрольными, грозный и могущественный страж Готэм Сити бросает вызов самому почитаемому в наши дни спасителю Метрополиса, в то время как весь остальной мир решает, какой герой ему по-настоящему нужен. И пока Бэтмен и Супермен пребывают в состоянии войны друг с другом, возникает новая угроза, которая ставит человечество под самую большую опасность, с которой оно когда-либо сталкивалось.
    Сэмпл: http://multi-up.com/1110259
    Качество видео: BDRip-AVC
    Формат видео: MKV
    Видео: MPEG-4 AVC/H.264 / 1806 kbps / 1024x428 / 23.976 fps
    Аудио: AC3 / 48 kHz / 384 kbps / 6 ch

    MediaInfo

    General
    Unique ID : 213704645938247397146818063628165482458 (0xA0C604871DD3612F8C03C24C74A087DA)
    Complete name : D:\фильмы.avi\uploaded\Batman v Superman\Batman.v.Superman.Dawn.of.Justice.2016.Extended.Ultimate.Edition.VO.lord66.mkv
    Format : Matroska
    Format version : Version 2
    File size : 2.79 GiB
    Duration : 3h 2mn
    Overall bit rate : 2 191 Kbps
    Movie name : Batman.v.Superman.Dawn.of.Justice.2016.Extended.Ultimate.Edition.BDRip-AVC.by Vovan366(ExKinoRay)
    Encoded date : UTC 2016-07-17 19:41:11
    Writing application : mkvmerge v5.8.0 ('No Sleep / Pillow') built on Sep 2 2012 15:37:04
    Writing library : libebml v1.2.3 + libmatroska v1.3.0
    Video
    ID : 1
    Format : AVC
    Format/Info : Advanced Video Codec
    Format profile : High@L4.1
    Format settings, CABAC : Yes
    Format settings, ReFrames : 10 frames
    Codec ID : V_MPEG4/ISO/AVC
    Duration : 3h 2mn
    Bit rate : 1 806 Kbps
    Width : 1 024 pixels
    Height : 428 pixels
    Display aspect ratio : 2.40:1
    Frame rate mode : Constant
    Frame rate : 23.976 (24000/1001) fps
    Color space : YUV
    Chroma subsampling : 4:2:0
    Bit depth : 8 bits
    Scan type : Progressive
    Bits/(Pixel*Frame) : 0.172
    Stream size : 2.25 GiB (80%)
    Title : by Vovan366(ExKinoRay)
    Writing library : x264 core 146 r2538 121396c
    Encoding settings : cabac=1 / ref=10 / deblock=1:-1:-1 / analyse=0x3:0x113 / me=hex / subme=10 / psy=1 / psy_rd=1.00:0.00 / mixed_ref=1 / me_range=16 / chroma_me=1 / trellis=2 / 8x8dct=1 / cqm=0 / deadzone=21,11 / fast_pskip=1 / chroma_qp_offset=-2 / threads=6 / lookahead_threads=1 / sliced_threads=0 / nr=0 / decimate=0 / interlaced=0 / bluray_compat=0 / constrained_intra=0 / bframes=10 / b_pyramid=2 / b_adapt=1 / b_bias=0 / direct=1 / weightb=1 / open_gop=0 / weightp=2 / keyint=250 / keyint_min=23 / scenecut=40 / intra_refresh=0 / rc=2pass / mbtree=0 / bitrate=1806 / ratetol=1.0 / qcomp=0.60 / qpmin=0 / qpmax=69 / qpstep=4 / cplxblur=20.0 / qblur=0.5 / ip_ratio=1.40 / pb_ratio=1.30 / aq=1:1.00
    Default : Yes
    Forced : No
    Color range : Limited
    Color primaries : BT.709
    Transfer characteristics : BT.709
    Matrix coefficients : BT.709
    Statistics Tags Issue : mkvmerge v9.2.0 ('Photograph') 64bit 2016-07-09 03:07:24 / mkvmerge v5.8.0 ('No Sleep / Pillow') built on Sep 2 2012 15:37:04 2016-07-17 19:41:11
    FromStats_BitRate : 1805090
    FromStats_Duration : 03:02:33.693000000
    FromStats_FrameCount : 262626
    FromStats_StreamSize : 2471550617
    Audio
    ID : 2
    Format : AC-3
    Format/Info : Audio Coding 3
    Mode extension : CM (complete main)
    Format settings, Endianness : Big
    Codec ID : A_AC3
    Duration : 3h 2mn
    Bit rate mode : Constant
    Bit rate : 384 Kbps
    Channel(s) : 6 channels
    Channel positions : Front: L C R, Side: L R, LFE
    Sampling rate : 48.0 KHz
    Frame rate : 31.250 fps (1536 spf)
    Compression mode : Lossy
    Stream size : 501 MiB (18%)
    Title : VO lord666
    Language : Russian
    Default : Yes
    Forced : No
    Menu
    00:00:00.000 : en:00:00:00.000
    00:10:10.652 : en:00:10:10.652
    00:27:00.661 : en:00:27:00.661
    00:37:49.225 : en:00:37:49.225
    00:46:54.520 : en:00:46:54.520
    01:02:04.971 : en:01:02:04.971
    01:14:10.613 : en:01:14:10.613
    01:28:07.115 : en:01:28:07.115
    01:41:46.642 : en:01:41:46.642
    01:53:52.617 : en:01:53:52.617
    02:02:58.079 : en:02:02:58.079
    02:15:04.054 : en:02:15:04.054
    02:27:55.075 : en:02:27:55.075
    02:36:51.444 : en:02:36:51.444
    02:48:27.514 : en:02:48:27.514
    02:54:43.765 : en:02:54:43.765

    Скриншот c названием фильма

    Скриншоты

    Скачать .torrent

    Скачать торрент-файл бесплатно и на максимальной скорости!

    Как скачивать? · Что такое торрент? · Рейтинг и ограничения

    !ВНИМАНИЕ!
    Сайт не распространяет и не хранит электронные версии произведений, а занимается лишь лишь предоставлением доступа к создаваемому пользователями каталогу ссылок на торрент-файлы, которые содержат только списки хеш-сумм, убедительная просьба с жалобами обращаться напрямую к пользователю. Файлы для обмена на трекере предоставлены пользователями сайта, и администрация не несёт ответственности за их содержание. Просьба не заливать файлы, защищенные авторскими правами, а также файлы нелегального содержания!


    _________________
    [Профиль] [ЛС]
    Показать сообщения:    
    Ответить на тему

    Текущее время: Сегодня, в 20:47

    Часовой пояс: GMT + 2



    Вы не можете начинать темы
    Вы не можете отвечать на сообщения
    Вы не можете редактировать свои сообщения
    Вы не можете удалять свои сообщения
    Вы не можете голосовать в опросах
    Вы не можете прикреплять файлы к сообщениям
    Вы не можете скачивать файлы