BitTorrentTracker PerecTracker.org
BitTorrentTracker PerecTracker.org
    
Регистрация  ·  Вход
 
 · 
Забыли пароль?

  • По ту сторону двери / The Other Side of the Door (Йоханнес Робертс / Johannes Roberts) [2015, Индия, Великобритания, Ужасы, BDRip] Dub (iTunes)

    Ответить на тему
     
    Автор Сообщение

    Light

    Создавать темы 18-Июл-2016 07:20

           

    [Цитировать]

    По ту сторону двери / The Other Side of the Door
    Слоган: Не надо было ее открывать!
    Страна: Индия, Великобритания
    Жанр: Ужасы
    Год выпуска: 2015
    Продолжительность: 01:35:40
    Перевод: Профессиональный (дублированный) - (iTunes)
    Cубтитры: нет
    Оригинальная аудиодорожка: нет
    Режиссер: Йоханнес Робертс / Johannes Roberts
    В ролях: Сара Уэйн Кэллис, Джереми Систо, София Росински, Хавьер Ботет, Джакс Малкольм, Сучитра Пиллай-Малик
    Описание: Идиллическая жизнь молодой семьи за границей трагически прерывается гибелью маленького сына. Безутешная мать узнает о существовании древнего ритуала, который позволяет на время вернуть умерших, чтобы с ними попрощаться. Девушка отправляется в заброшенный храм, где двери служат порталом между мирами живых и мертвых, но пренебрегает предупреждением не открывать эти таинственные врата. И теперь никто не знает, что станет с нашим миром после нарушения баланса жизни и смерти.
    Сэмпл: http://multi-up.com/1109407
    Качество видео: BDRip
    Исходник: [The.Other.Side.Of.The.Door.2016.BDREMUX.1080p.ExKinoRay]
    Формат видео: AVI
    Видео: 720x304 (2.37:1), 23.976 fps, XviD build 65 ~1790 kbps avg, 0.34 bit/pixel
    Аудио: 48 kHz, AC3 Dolby Digital, 3/2 (L,C,R,l,r) + LFE ch, ~384 kbps

    MediaInfo

    General
    Complete name : D:\Фильмы\The Other Side of the Door_2015_Toriyal_Rutracker.avi
    Format : AVI
    Format/Info : Audio Video Interleave
    File size : 1.46 GiB
    Duration : 1h 35mn
    Overall bit rate : 2 184 Kbps
    Writing application : VirtualDubMod 1.5.10.3 | www.virtualdub-fr.org || (build 2550/release)
    Writing library : VirtualDubMod build 2550/release
    Video
    ID : 0
    Format : MPEG-4 Visual
    Format profile : Advanced Simple@L5
    Format settings, BVOP : 1
    Format settings, QPel : No
    Format settings, GMC : No warppoints
    Format settings, Matrix : Custom
    Codec ID : XVID
    Codec ID/Hint : XviD
    Duration : 1h 35mn
    Bit rate : 1 791 Kbps
    Width : 720 pixels
    Height : 304 pixels
    Display aspect ratio : 2.35:1
    Frame rate : 23.976 (23976/1000) fps
    Color space : YUV
    Chroma subsampling : 4:2:0
    Bit depth : 8 bits
    Scan type : Progressive
    Compression mode : Lossy
    Bits/(Pixel*Frame) : 0.341
    Stream size : 1.20 GiB (82%)
    Writing library : XviD 65
    Audio
    ID : 1
    Format : AC-3
    Format/Info : Audio Coding 3
    Mode extension : CM (complete main)
    Format settings, Endianness : Big
    Codec ID : 2000
    Duration : 1h 35mn
    Bit rate mode : Constant
    Bit rate : 384 Kbps
    Channel(s) : 6 channels
    Channel positions : Front: L C R, Side: L R, LFE
    Sampling rate : 48.0 KHz
    Frame rate : 31.250 fps (1536 spf)
    Compression mode : Lossy
    Stream size : 263 MiB (18%)
    Alignment : Split accross interleaves
    Interleave, duration : 42 ms (1.00 video frame)
    Interleave, preload duratio : 500 ms

    Скриншоты

    Скачать .torrent

    Скачать торрент-файл бесплатно и на максимальной скорости!

    Как скачивать? · Что такое торрент? · Рейтинг и ограничения

    !ВНИМАНИЕ!
    Сайт не распространяет и не хранит электронные версии произведений, а занимается лишь лишь предоставлением доступа к создаваемому пользователями каталогу ссылок на торрент-файлы, которые содержат только списки хеш-сумм, убедительная просьба с жалобами обращаться напрямую к пользователю. Файлы для обмена на трекере предоставлены пользователями сайта, и администрация не несёт ответственности за их содержание. Просьба не заливать файлы, защищенные авторскими правами, а также файлы нелегального содержания!


    _________________
    [Профиль] [ЛС]
    Показать сообщения:    
    Ответить на тему

    Текущее время: Сегодня, в 15:50

    Часовой пояс: GMT + 2



    Вы не можете начинать темы
    Вы не можете отвечать на сообщения
    Вы не можете редактировать свои сообщения
    Вы не можете удалять свои сообщения
    Вы не можете голосовать в опросах
    Вы не можете прикреплять файлы к сообщениям
    Вы не можете скачивать файлы