Register  ·  Log in
Forgot password?

  • Незваные гости / Intruders / Shut In (Адам Шиндлер / Adam Schindler) [2015, США, ужасы, триллер, драма, HDRip] Dub (iTunes)

    Reply to topic
    Author Message


    Post 18-Jul-2016 08:20



    Незваные гости / Intruders / Shut In
    Страна: США
    Жанр: ужасы, триллер, драма
    Год выпуска: 2015
    Продолжительность: 01:30:19
    Перевод: Профессиональный (дублированный) iTunes
    Cубтитры: нет
    Режиссер: Адам Шиндлер / Adam Schindler
    В ролях: Рори Калкин (Dan Cooper), Летисия Хименез (Charlotte), Джек Кеси (J.P. Henson), Тимоти Т. МакКинни (Conrad), Джошуа Микель (Vance), Бэт Рисграф (Anna Rook), Мартин Старр (Perry Cuttner)
    Описание: Анна страдает от агорафобии, поэтому, когда трое преступников врываются в ее дом, она не может заставить себя выбежать на улицу. Злоумышленники пока не знают, что боязнь открытого пространства - не единственное расстройство психики девушки.
    Качество видео: HDRip (исходник неизвестен)
    Формат видео: AVI
    Видео: 688x288 (2.39:1), 24 fps, XviD build 73 ~1146 kbps avg, 0.24 bit/pixel
    Аудио: MPEG Audio Layer 3 48000Hz stereo 128kbps


    Complete name : E:\Zona Downloads\Shut.In.2015.HDRip.745MB..avi
    Format : AVI
    Format/Info : Audio Video Interleave
    File size : 744 MiB
    Duration : 1h 30mn
    Overall bit rate : 1 152 Kbps
    ID : 0
    Format : MPEG-4 Visual
    Format profile : Advanced Simple@L5
    Format settings, BVOP : 1
    Format settings, QPel : No
    Format settings, GMC : No warppoints
    Format settings, Matrix : Custom
    Codec ID : XVID
    Codec ID/Hint : XviD
    Duration : 1h 30mn
    Bit rate : 1 019 Kbps
    Width : 688 pixels
    Height : 288 pixels
    Display aspect ratio : 2.40:1
    Frame rate : 24.000 fps
    Color space : YUV
    Chroma subsampling : 4:2:0
    Bit depth : 8 bits
    Scan type : Progressive
    Compression mode : Lossy
    Bits/(Pixel*Frame) : 0.214
    Stream size : 658 MiB (88%)
    Writing library : XviD 73
    ID : 1
    Format : MPEG Audio
    Format version : Version 1
    Format profile : Layer 3
    Mode : Joint stereo
    Mode extension : MS Stereo
    Codec ID : 55
    Codec ID/Hint : MP3
    Duration : 1h 29mn
    Bit rate mode : Constant
    Bit rate : 128 Kbps
    Channel(s) : 2 channels
    Sampling rate : 48.0 KHz
    Compression mode : Lossy
    Stream size : 82.4 MiB (11%)
    Alignment : Aligned on interleaves
    Interleave, duration : 167 ms (4.01 video frames)
    Interleave, preload duration : 216 ms
    Title : iTunes
    Writing library : LAME3.99r
    Encoding settings : -m j -V 4 -q 2 -lowpass 17 -b 128

    Скриншот c названием фильма


    Download .torrent

    Download free and at maximum speed!

    How to Download? · What is a torrent? · Ratings and Limitations

    The site does not extend and does not store electronic(digital) versions of products, and only gives access to a reference catalogue created by users on torrent-files which contain only lists of the hash-sums, the earnest entreaty, with complaints(abuse) to access directly to the user. Files for an exchange on tracker are given by users of a site, and the administration does not bear the responsibility for their maintenance. The request to not fill in the files protected by copyrights, and also files of the illegal maintenance!

    [Profile] [PM]
    Display posts from previous:    
    Reply to topic

    The time now is: Today 17:51

    All times are GMT + 3 Hours

    You cannot post new topics in this forum
    You cannot reply to topics in this forum
    You cannot edit your posts in this forum
    You cannot delete your posts in this forum
    You cannot vote in polls in this forum
    You cannot attach files in this forum
    You cannot download files in this forum